<?xml version="1.0" standalone="no"?>
<!DOCTYPE svg PUBLIC "-//W3C//DTD SVG 1.1//EN" "http://www.w3.org/Graphics/SVG/1.1/DTD/svg11.dtd" >
<svg xmlns="http://www.w3.org/2000/svg" xmlns:xlink="http://www.w3.org/1999/xlink" version="1.1">
<metadata></metadata>
<defs>
<font id="meteoregular" horiz-adv-x="2104" >
<font-face units-per-em="2048" ascent="1638" descent="-410" />
<missing-glyph horiz-adv-x="800" />
<glyph horiz-adv-x="0" />
<glyph horiz-adv-x="2048" />
<glyph unicode=" "  horiz-adv-x="800" />
<glyph unicode="&#x09;" horiz-adv-x="800" />
<glyph unicode="&#xa0;" horiz-adv-x="800" />
<glyph unicode="+" horiz-adv-x="2032" d="M36 423l569 567l-569 568l381 380l569 -567l569 567l381 -380l-569 -568l569 -567l-383 -385l-567 571l-569 -571z" />
<glyph unicode="." horiz-adv-x="627" d="M287 151q0 58 45.5 100t109.5 42t110 -42t46 -100q0 -60 -46 -101.5t-110 -41.5t-109.5 41.5t-45.5 101.5z" />
<glyph unicode="0" horiz-adv-x="1984" d="M65 165v546h240v1045h968l357 -357v-688h260v-548h-115v-167h-1593v169h-117zM137 230h41v21h1595v-23h45v410h-1681v-246h418v-39h-418v-123zM352 711h1230v643l-358 -2v355h-872v-996zM522 777v23h874v-23h-874zM522 902v22h874v-22h-874zM522 1016v23h874v-23h-874z M522 1139v23h874v-23h-874zM522 1264v23h874v-23h-874z" />
<glyph unicode="&#x3e;" horiz-adv-x="2111" d="M-4 166l493 807l-493 807l2015 -807z" />
<glyph unicode="A" horiz-adv-x="1920" d="M111 966q0 19 18 39q20 17 51 20l183 8q42 -7 65 -22q23 -17 23 -37q0 -47 -94 -51l-201 4q-45 3 -45 39zM301 444q0 29 33 61l160 154q30 24 59 24q43 0 43 -41q0 -36 -37 -75l-155 -146q-35 -14 -58 -14q-45 0 -45 37zM355 1654q0 35 36 35q30 0 66 -29l123 -115 q31 -39 31 -73q0 -37 -33 -37q-35 0 -84 45l-107 108q-32 34 -32 66zM561 995q0 93 45 174q43 79 136 129q31 14 53 14q39 0 39 -27q0 -29 -51 -57q-68 -39 -103 -104q-35 -67 -35 -144q0 -63 25 -131q23 -68 67 -118q43 -54 105 -84q61 -33 135 -33q120 0 252 90 q57 60 86 135q26 73 26 158q0 74 -22 145q-25 69 -72 125q-46 53 -112 88q-70 31 -150 31q-137 0 -293 -90q-44 -17 -65 -17q-25 0 -25 19q0 26 39 77q157 93 307 93q102 0 195 -43q90 -44 153 -115q62 -70 101 -162q35 -93 35 -184q0 -97 -43 -184q-43 -86 -129 -146 q-138 -90 -275 -90q-90 0 -168 39q-80 38 -135 102q-57 65 -88 148q-33 79 -33 162zM920 1783q13 88 61 88q45 0 51 -84l-6 -160q-2 -42 -16 -67q-15 -25 -35 -25q-45 0 -49 94zM936 337q10 92 59 92q48 0 60 -100l-11 -178q-3 -44 -18 -68t-35 -24q-21 0 -34 26 q-17 26 -17 66zM1380 561q0 32 35 32t82 -39l131 -131q41 -37 41 -67q0 -33 -35 -33q-39 0 -82 43l-133 123q-39 36 -39 72zM1395 1386q0 36 51 84l143 92q33 16 66 16q43 0 43 -28q0 -33 -60 -72l-143 -96q-39 -27 -68 -27q-32 0 -32 31zM1495 1035q0 45 78 56l166 -4 q42 -4 65 -17q25 -17 25 -37q0 -41 -82 -41l-172 -2q-80 0 -80 45z" />
<glyph unicode="B" horiz-adv-x="2174" d="M66 898q0 19 18 37q17 16 48 19l173 8q38 -6 62 -22q21 -15 21 -34q0 -45 -89 -49l-190 4q-43 1 -43 37zM247 403q0 27 31 58l151 146q29 23 56 23q41 0 41 -39q0 -33 -35 -72l-147 -137q-33 -14 -55 -14q-42 0 -42 35zM297 1550q0 33 35 33q29 0 62 -28l116 -108 q30 -38 30 -70q0 -35 -31 -35q-35 0 -80 43l-101 102q-31 33 -31 63zM493 925q0 89 43 165q40 75 128 122q29 14 50 14q37 0 37 -26q0 -27 -48 -54q-64 -38 -97 -99q-33 -59 -33 -136q0 -64 23 -124q21 -65 64 -112q41 -52 99 -80q57 -31 128 -31q115 0 238 85q45 36 68 66 q19 22 41 68h-153q-33 -1 -55.5 -1.5t-35.5 -0.5q3 0 -47 2h-42q-89 10 -128 41q-43 31 -43 74q0 51 56 95q56 40 136 40q97 0 188 -67q24 17 47 36q2 2 29 26q10 9 29 23q7 7 23 19q-66 111 -147 171q-84 60 -190 60q-128 0 -284 -91q-44 -16 -62 -16q-23 0 -23 18 q0 25 37 74q153 89 302 89q142 0 256 -78q112 -77 173 -205q88 31 161 31q61 0 111 -24q46 -24 76 -77q71 19 141 19q125 0 204 -56q78 -56 78 -118q0 -65 -82 -72q-105 0 -196 -1t-167 -1q-67 -3 -146 -4.5t-170 -3.5h-6q-22 -70 -60 -118q-40 -51 -89 -84 q-130 -85 -260 -85q-87 0 -159 37q-74 33 -129 97q-52 59 -83 140q-31 73 -31 153zM792 904q0 -23 31 -39q29 -19 87 -23q116 0 224.5 1.5t210.5 3.5q54 0 107 0.5t106 1.5q49 1 105.5 2t119.5 2l10 2q66 0 108.5 1t62.5 1q31 0 31 25q0 35 -58 70q-59 33 -163 33 q-75 0 -161 -19q-23 45 -66 73q-48 26 -107 26q-77 0 -161 -43q-87 -47 -155 -134q-49 45 -99 70q-53 21 -101 21q-58 0 -93 -23q-39 -24 -39 -52zM833 1672q13 83 58 83q43 0 48 -79l-6 -152q-2 -40 -15 -64q-14 -23 -33 -23q-43 0 -47 89zM848 302q10 87 56 87 q45 0 57 -95l-10 -169q-5 -45 -18 -64q-14 -23 -32 -23q-20 0 -33 25q-16 23 -16 62zM1269 513q0 32 33 32q31 0 78 -37l124 -125q39 -35 39 -64q0 -31 -33 -31q-37 0 -78 41l-126 117q-37 34 -37 67zM1283 1295q0 35 48 80l136 87q32 16 62 16q41 0 41 -27q0 -32 -56 -68 l-136 -92q-40 -25 -64 -25q-31 0 -31 29z" />
<glyph unicode="C" horiz-adv-x="2116" d="M24 973q0 44 79 59l154 1q42 -5 66 -24q24 -18 24 -36q0 -17 -18 -26q-20 -9 -59 -9l-169 -2q-40 0 -57 11q-20 9 -20 26zM166 584q0 43 26 91q22 44 69 89q41 39 97 70q50 25 111 39q-26 48 -26 114q0 83 47 167q43 81 138 129q38 19 78 19q50 0 50 -24q0 -27 -80 -61 q-77 -34 -107 -91q-33 -62 -33 -137q0 -53 13 -109q62 -3 116 -35q51 -31 89 -94q0 2 -2 26v24q0 88 33 159q31 67 89 116q55 45 127 70q67 22 143 22h22q10 -1 22 -1q-41 85 -124 146q-85 55 -195 55q-136 0 -289 -87q-42 -17 -63 -17q-20 0 -20 15q0 29 72 100 q137 74 279 74q153 0 270 -83q114 -85 144 -218q91 -26 153 -91q58 -64 71 -164q87 79 190 79q67 0 127 -31q60 -32 111 -83q49 -57 76 -117q26 -65 26 -120q0 -58 -28 -103t-90 -71q-104 -8 -285 -9q-91 -2 -190 -3t-205 -1q-91 0 -167.5 0.5t-139.5 1.5q-72 0 -148 1 t-155 3q-190 1 -240 4q-87 1 -111 3q-91 50 -91 133zM246 1619q0 37 35 37q29 0 63 -35l131 -124q28 -27 28 -53q0 -35 -41 -35q-34 0 -78 31l-118 128q-20 25 -20 51zM275 610q0 -65 83 -105q4 0 98 4h104.5t165.5 2q201 1 329 3q35 0 90.5 1.5t131.5 2.5l48 2q170 1 273 7 q136 5 200 11q63 14 96 46q32 32 32 74q0 38 -21 74q-19 33 -61 71q-38 29 -88 50q-51 18 -104 18q-112 0 -205 -79q-30 133 -117 208q-88 76 -197 76q-67 0 -128 -30q-61 -29 -109 -92q-49 -65 -77 -159q-30 -98 -30 -223q-26 118 -91 173q-67 56 -153 56q-47 0 -96 -17 q-50 -17 -89 -44q-41 -30 -63 -63q-22 -35 -22 -67zM800 1747q8 42 28 68q17 22 39 22q27 0 27 -35l-1 -5v-6l5 -235q0 -53 -41 -53q-20 0 -35 20q-18 21 -20 58zM1256 1368q0 23 28 42l187 126q15 11 35 11q41 0 41 -37q0 -33 -48 -66l-113 -78q-50 -29 -87 -29 q-43 0 -43 31z" />
<glyph unicode="D" horiz-adv-x="2143" d="M20 1119q0 41 73 55l142 2q41 -7 62 -23q22 -18 22 -34q0 -15 -17 -24q-18 -9 -55 -9l-155 -1q-38 0 -53 10q-19 8 -19 24zM61 448q0 83 64 173q63 87 161 140q-19 62 -19 125q0 90 44 165q38 65 101 114q11 73 38 122q42 76 129 120q29 17 71 17q47 0 47 -22 q0 -24 -74 -57q-71 -29 -99 -84q-18 -32 -20 -42q31 15 73 29q84 25 159 25q64 0 120 -19q52 -24 69 -59q24 111 121 179v0l1 1q-17 23 -65 60q-71 51 -181 51q-125 0 -267 -81q-38 -15 -58 -15q-19 0 -19 14q0 27 67 92q126 69 258 69q144 0 247 -75q61 -44 87 -77 q71 29 156 29q93 0 182 -37q92 -40 171 -118q80 -83 138 -207q56 -128 77 -297q86 -52 143 -142q58 -93 58 -181q0 -60 -29 -103q-29 -45 -91 -70q-119 -9 -286 -10q-162 -4 -411 -4q-90 0 -174.5 0.5t-162.5 1.5q-63 0 -144 1.5t-182 2.5q-76 0 -140 1.5t-116 2.5 q-104 1 -141 4q-53 28 -78 72q-25 42 -25 89zM189 468q0 -69 93 -105h27q25 -2 78 -2h120t172 2q214 0 348.5 1t188.5 1q95 0 186.5 -1t181.5 -1q80 -2 146 -3.5t118 -4.5q46 19 70 52q21 33 21 74t-20 86q-21 39 -56 78q-38 35 -81 56q-49 22 -93 22q-54 0 -105 -32 q-50 -29 -95 -97q-49 176 -168 276q-120 98 -252 98q-150 0 -252 -117q-105 -119 -105 -335q-20 87 -73 131q-55 41 -130 41q-53 0 -111 -20q-59 -21 -104 -52q-50 -35 -76 -72q-29 -40 -29 -76zM225 1720q0 34 32 34q28 0 58 -33l122 -115q25 -24 25 -50q0 -32 -37 -32 q-31 0 -72 29l-109 118q-19 26 -19 49zM344 882q0 -45 16 -87q55 17 104 17q62 0 118 -27q53 -26 97 -82q0 140 78 236q74 91 196 128q-43 51 -105 79q-64 28 -136 28q-68 0 -131 -22q-66 -21 -121 -60q-54 -40 -85 -93q-31 -56 -31 -117zM737 1838q8 39 26 63q18 21 36 21 q26 0 26 -33l-2 -5v-5l5 -218q0 -50 -37 -50q-19 0 -33 19q-15 18 -19 53zM999 1078q41 8 87 8q163 0 283 -99q120 -100 128 -282q46 63 97 91q51 30 106 30q15 0 37 -4q-20 134 -66 235q-49 102 -110 163q-65 64 -136 96q-74 29 -143 29q-119 0 -200 -72q-83 -74 -83 -195z M1160 1486q0 22 25 40l173 116q15 11 32 11q38 0 38 -35q0 -31 -45 -62l-104 -72q-47 -27 -80 -27q-39 0 -39 29z" />
<glyph unicode="E" d="M15 606q0 83 65 173q62 88 161 141q-19 61 -19 124q0 90 44 165q43 72 113 123q72 49 154 74q79 25 159 25q71 0 121 -20q50 -21 70 -58q24 111 121 179q94 68 227 68q92 0 183 -37q92 -40 171 -118q80 -83 138 -207q57 -126 78 -297q86 -52 144 -142q59 -94 59 -181 q0 -58 -30 -103q-29 -45 -91 -70q-121 -9 -288 -10q-91 -2 -194 -3t-218 -1q-90 0 -175 0.5t-164 1.5q-63 0 -144.5 1.5t-182.5 2.5q-76 0 -140 1.5t-116 2.5q-47 0 -82.5 1.5t-59.5 2.5q-53 28 -78 72q-26 41 -26 89zM144 626q0 -69 93 -105h27q25 -2 78 -2h121.5t172.5 2 q215 0 349.5 1t189.5 1q95 0 187 -1t182 -1q81 -2 147 -3.5t118 -4.5q46 19 70 52q22 36 22 74q0 42 -20 86q-21 39 -56 78q-40 35 -82 56q-49 22 -94 22q-53 0 -105 -31q-51 -31 -95 -98q-52 180 -169 276q-120 98 -253 98q-150 0 -253 -117q-105 -119 -105 -335 q-20 86 -74 131q-55 41 -130 41q-53 0 -111 -20q-59 -20 -105 -52q-49 -33 -76 -72q-29 -40 -29 -76zM299 1040q0 -41 16 -87q55 17 105 17q62 0 119 -27q51 -26 97 -82q0 140 78 235q75 92 196 129q-41 50 -105 80q-65 27 -136 27q-68 0 -132 -22q-68 -22 -121 -60 q-56 -42 -85 -93q-32 -57 -32 -117zM957 1236q41 8 87 8q163 0 285 -99q120 -100 128 -282q44 61 97 92q50 28 107 28q20 0 37 -3q-20 134 -66 235q-47 99 -111 164q-66 64 -136 95q-74 29 -144 29q-119 0 -200 -72q-84 -74 -84 -195z" />
<glyph unicode="F" horiz-adv-x="2137" d="M49 1059q0 44 79 59l153 2q43 -7 67 -24q24 -18 24 -37q0 -17 -19 -26q-18 -9 -59 -9l-168 -2q-37 0 -57 11q-20 9 -20 26zM191 672q0 46 26 90q25 49 68 89q40 38 98 70q53 26 110 39q-26 47 -26 114q0 83 46 166q45 81 139 129q34 18 77 18q50 0 50 -24q0 -25 -79 -61 q-76 -31 -107 -90q-33 -62 -33 -136q0 -52 12 -109q62 -3 117 -35q50 -32 88 -94q0 2 -2 26v24q0 87 33 158q30 66 89 116q56 45 127 70q66 22 142 22h22q10 -1 22 -1q-42 88 -124 145q-82 55 -195 55q-136 0 -287 -86q-42 -17 -63 -17q-20 0 -20 15q0 29 72 100 q135 73 278 73q156 0 269 -83q114 -83 144 -217q92 -26 153 -91q58 -65 70 -164q89 80 190 80q64 0 127 -32q62 -33 110 -82q46 -53 76 -116q26 -65 26 -120q0 -56 -28 -104q-31 -47 -90 -70q-52 -3 -123 -6t-161 -3q-182 -3 -395 -3h-166.5t-138.5 1q-72 0 -148 1t-155 3 q-89 0 -148.5 1.5t-90.5 2.5q-87 1 -111 3q-90 51 -90 133zM270 1704q0 37 35 37q29 0 63 -35l131 -124q27 -26 27 -53q0 -35 -40 -35q-34 0 -78 31l-118 128q-20 27 -20 51zM300 698q0 -65 83 -105q5 0 97 5h103.5h165.5q102 1 183.5 2t144.5 2q35 0 90.5 1.5t130.5 2.5 l48 2q170 1 273 7q108 2 199 11q65 15 96 46t31 74q0 38 -20 74q-25 39 -61 70q-39 30 -88 49t-103 19q-110 0 -205 -79q-27 129 -116 208q-89 75 -197 75q-66 0 -128 -29q-60 -30 -108 -92q-49 -65 -77 -159q-30 -98 -30 -223q-26 118 -90 174q-69 55 -153 55 q-47 0 -96 -17q-50 -17 -89 -44q-42 -31 -62 -63q-22 -33 -22 -66zM460 58q0 25 26 58l37 35q51 77 70 77q7 0 7 -13q0 -26 -24 -90l-2 -50q-10 -28 -27 -41q-22 -14 -43 -14q-44 0 -44 38zM777 248q0 23 26 56l37 35q51 79 70 79q7 0 7 -13q0 -26 -24 -90l-4 -48 q-6 -27 -27 -43q-20 -14 -43 -14q-42 0 -42 38zM823 1831q9 45 28 69q18 22 38 22q28 0 28 -35l-2 -6v-5l6 -235q0 -53 -41 -53q-20 0 -35 20q-18 21 -20 57zM1013 62q0 26 26 57l35 35q51 78 70 78q7 0 7 -13q0 -25 -24 -89l-2 -50q-9 -27 -27 -40q-21 -15 -43 -15 q-42 0 -42 37zM1278 1453q0 25 28 43l186 125q15 11 35 11q41 0 41 -37q0 -33 -48 -66l-113 -77q-50 -30 -86 -30q-43 0 -43 31z" />
<glyph unicode="G" horiz-adv-x="2122" d="M29 1069q0 43 80 59l153 2q41 -5 66 -24q24 -18 24 -37q0 -17 -18 -26t-59 -9l-168 -2q-38 0 -58 11q-20 9 -20 26zM171 681q0 43 26 91q22 44 69 89q40 38 98 70q55 27 111 39q-26 44 -26 114q0 85 46 166q42 80 138 130q36 18 78 18q50 0 50 -24q0 -26 -79 -61 q-77 -32 -108 -90q-33 -62 -33 -137q0 -55 13 -109q64 -5 117 -35q51 -32 88 -94q0 13 -2 25v24q0 89 34 159q31 69 88 117q58 46 128 70q66 22 142 22h22q20 -2 22 -2q-43 89 -124 146q-84 56 -195 56q-135 0 -288 -87q-44 -17 -63 -17q-21 0 -21 15q0 29 72 100 q138 74 279 74q155 0 270 -83q115 -84 144 -219q92 -26 154 -90q59 -66 70 -165q89 80 190 80q68 0 128 -32q57 -29 111 -83q46 -51 76 -116q25 -62 25 -120t-27 -104q-32 -47 -91 -70q-104 -8 -284 -9q-91 -2 -190 -3t-206 -1q-91 0 -167.5 0.5t-139.5 1.5q-162 0 -303 4 q-190 1 -240 4q-87 1 -111 3q-91 50 -91 133zM221 10l263 429h70l-268 -427zM251 1716q0 37 35 37q29 0 63 -35l131 -124q28 -27 28 -53q0 -36 -41 -36q-33 0 -77 32l-119 127q-20 29 -20 52zM280 707q0 -65 84 -105q19 1 98 3q36 0 103.5 0.5t166.5 1.5q101 1 183 2t145 2 q35 0 90.5 1.5t131.5 2.5l48 2q170 1 274 7q109 2 199 11q65 15 96 46q32 32 32 74q0 36 -21 74q-19 33 -60 70q-40 32 -89 50q-50 19 -104 19q-110 0 -205 -80q-27 130 -116 209q-90 76 -198 76q-67 0 -128 -30q-64 -32 -108 -92q-48 -60 -78 -159q-30 -98 -30 -224 q-26 118 -90 174q-67 55 -154 55q-50 0 -96 -16q-51 -17 -88 -44q-42 -30 -63 -63q-23 -36 -23 -67zM428 5l263 429h70l-268 -427zM652 5l262 429h70l-267 -427zM805 1844q10 45 28 68q17 22 39 22q28 0 28 -35l-2 -5v-6l5 -235q0 -53 -40 -53q-23 0 -35 20q-17 19 -21 57z M887 0l262 428h70l-267 -427zM1121 0l263 428h70l-268 -427zM1262 1465q0 24 27 42l187 126q17 11 35 11q41 0 41 -37q0 -33 -48 -66l-113 -78q-50 -30 -87 -30q-42 0 -42 32zM1373 0l262 428h70l-268 -427z" />
<glyph unicode="H" horiz-adv-x="2111" d="M23 757q0 83 64 173q64 87 161 140q-19 61 -19 124q0 91 45 165q41 73 112 123q72 49 154 74q80 25 160 25q68 0 120 -19q50 -21 70 -59q24 111 121 179q97 69 227 69q88 0 183 -37q89 -39 172 -119q79 -80 138 -206q56 -130 77 -298q85 -50 144 -142q59 -94 59 -181 q0 -58 -29 -103q-30 -45 -92 -70q-96 -7 -288 -10q-90 -2 -193.5 -3t-218.5 -1q-90 0 -174.5 0.5t-164.5 1.5q-63 1 -144.5 2t-182.5 2q-76 1 -140 2t-116 2q-46 0 -81.5 1.5t-60.5 2.5q-53 30 -78 72q-25 39 -25 90zM151 776q0 -68 93 -105h28q48 -2 77 -2q48 0 121.5 0.5 t172.5 1.5q215 0 349.5 1t189.5 1q95 0 187.5 -1t182.5 -1q152 -2 264 -8q47 19 70 53q22 32 22 74q0 41 -20 85q-19 37 -56 78q-40 35 -82 56q-46 22 -93 22q-54 0 -105 -31q-54 -32 -96 -97q-50 177 -169 276q-120 97 -253 97q-150 0 -253 -117q-105 -119 -105 -334 q-20 89 -74 130q-55 41 -130 41q-53 0 -111 -20q-58 -21 -105 -52q-50 -35 -76 -72q-29 -40 -29 -76zM307 1190q0 -42 15 -87q57 17 105 17q62 0 119 -27q56 -29 97 -82q0 140 78 236q77 94 197 128q-45 53 -106 80q-63 27 -136 27q-66 0 -132 -21q-63 -20 -121 -61 q-54 -40 -85 -93q-31 -54 -31 -117zM423 58q0 25 28 60l38 37q55 82 74 82q8 0 8 -14q0 -29 -25 -95l-2 -52q-9 -29 -29 -43q-23 -16 -45 -16q-47 0 -47 41zM758 258q0 26 27 59l39 37q54 83 74 83q8 0 8 -13q0 -25 -25 -96l-4 -50q-8 -29 -30 -45q-21 -15 -44 -15 q-45 0 -45 40zM964 1387q43 7 88 7q164 0 284 -99q120 -100 128 -282q44 61 97 92q51 29 107 29q22 0 37 -4q-20 134 -66 235q-46 98 -111 164q-64 63 -136 95q-70 29 -144 29q-119 0 -200 -72q-84 -74 -84 -194zM1007 62q0 27 27 60l37 37q53 82 74 82q8 0 8 -14 q0 -25 -26 -93l-1 -52q-11 -30 -30 -43q-21 -16 -44 -16q-45 0 -45 39z" />
<glyph unicode="I" horiz-adv-x="2116" d="M28 762q0 85 64 173q64 87 161 140q-19 62 -19 125q0 91 45 165q42 73 113 122q70 50 153 74q84 26 160 26q66 0 120 -20q50 -21 70 -58q23 110 121 179q98 68 228 68q91 0 182 -37q92 -40 172 -119q79 -80 138 -206q55 -127 78 -298q84 -50 143 -141q59 -96 59 -181 q0 -59 -29 -103q-31 -47 -92 -71q-105 -8 -288 -9q-90 -3 -193.5 -3.5t-218.5 -0.5q-90 0 -174.5 0.5t-164.5 1.5q-62 0 -143.5 1t-182.5 3q-77 0 -141 1t-116 3q-94 1 -142 3q-53 30 -78 73q-25 39 -25 89zM152 42l276 452h74l-282 -450zM156 782q0 -69 93 -106h28 q48 -2 78 -2q47 0 120.5 0.5t172.5 1.5q215 1 350 1.5t189 0.5q95 0 187.5 -0.5t182.5 -1.5q172 -2 264 -7q48 20 70 52t22 74q0 41 -20 86q-21 40 -56 77q-35 33 -82 57q-47 21 -93 21q-57 0 -105 -31q-54 -32 -96 -97q-50 177 -169 276q-118 97 -253 97q-150 0 -253 -117 q-105 -119 -105 -334q-20 88 -74 131q-54 40 -130 40q-56 0 -111 -19q-54 -19 -105 -53q-50 -35 -76 -72q-29 -40 -29 -75zM312 1196q0 -43 15 -88q55 18 105 18q63 0 119 -28q55 -28 97 -81q0 139 78 235q76 93 197 129q-43 51 -105 79q-65 27 -137 27q-66 0 -132 -21 t-121 -60q-52 -39 -85 -94q-31 -54 -31 -116zM370 36l276 452h74l-282 -450zM606 36l276 452h74l-282 -450zM853 31l276 451h74l-282 -450zM969 1392q49 8 88 8q162 0 284 -99q120 -100 128 -282q46 63 98 91q50 29 106 29q22 0 37 -4q-20 133 -66 236q-47 98 -111 163 q-63 63 -136 96q-74 29 -144 29q-119 0 -200 -72q-84 -75 -84 -195zM1100 31l276 451h74l-282 -450zM1364 31l276 451h74l-282 -450z" />
<glyph unicode="J" d="M15 649q0 85 65 173q31 44 83 84.5t101 67.5q25 13 63 23q56 16 93 16q62 0 119 -27q53 -27 97 -82q0 140 78 236q78 94 214 134q25 6 52 9q33 4 64 4q163 0 285 -99q114 -95 137 -282q50 70 88 91q44 26 117 28q60 0 111 -32q42 -25 87.5 -65.5t75.5 -85.5 q59 -94 59 -181q0 -58 -30 -103q-29 -45 -91 -70q-121 -9 -288 -10q-91 -2 -194 -3t-218 -1q-90 0 -175 0.5t-164 1.5q-63 1 -144.5 2t-182.5 2q-76 0 -140 1.5t-116 2.5q-47 0 -82.5 1.5t-59.5 2.5q-53 28 -78 72q-26 41 -26 89zM144 669q0 -69 93 -105h27q50 -2 78 -2 q48 0 121.5 0.5t172.5 1.5q215 0 349.5 1t189.5 1q95 0 187 -1t182 -1q151 -2 265 -8q44 18 70 52q22 36 22 74q0 42 -20 86q-21 39 -56 78q-40 35 -82 56q-46 22 -94 22q-53 0 -105 -31q-51 -31 -95 -98q-52 180 -169 276q-120 98 -253 98q-150 0 -253 -117 q-105 -119 -105 -335q-20 86 -74 131q-55 41 -130 41q-53 0 -111 -20q-59 -20 -105 -52q-49 -33 -76 -72q-29 -40 -29 -76zM1067 176q0 27 27 60l39 37q54 82 74 82q8 0 8 -14q0 -27 -26 -95l-1 -53q-11 -30 -30 -43q-21 -15 -44 -15q-47 0 -47 41z" />
<glyph unicode="K" d="M15 536q0 84 65 173q31 43 83 83.5t101 67.5q23 12 63 24q58 15 93 15q62 0 119 -27q53 -27 97 -82q0 140 78 236q78 94 214 134q25 6 52 9q41 5 64 5q162 0 285 -100q114 -95 137 -282q50 70 88 92q44 25 117 27h6q53 0 105 -31q42 -26 87.5 -66.5t75.5 -85.5 q59 -94 59 -181q0 -58 -30 -103q-29 -45 -91 -70q-96 -7 -288 -10q-91 -2 -194 -3t-218 -1q-90 0 -175 0.5t-164 1.5q-63 1 -144.5 2t-182.5 2q-76 0 -140 1.5t-116 2.5q-47 0 -82.5 1.5t-59.5 2.5q-53 28 -78 72q-26 41 -26 90zM144 555q0 -68 93 -105h27q50 -2 78 -2 q48 0 121.5 0.5t172.5 1.5q215 0 349.5 1t189.5 1q95 0 187 -1t182 -1q151 -2 265 -8q46 19 70 53q22 34 22 74q0 41 -20 85q-21 39 -56 78q-40 35 -82 56q-46 22 -94 22q-53 0 -105 -31q-51 -31 -95 -98q-51 179 -169 277q-120 97 -253 97q-150 0 -253 -117 q-105 -119 -105 -334q-20 85 -74 130q-55 41 -130 41q-53 0 -111 -20q-59 -20 -105 -52q-49 -33 -76 -72q-29 -40 -29 -76z" />
<glyph unicode="L" horiz-adv-x="2121" d="M28 1069q0 44 80 59l153 2q43 -7 66 -24q24 -18 24 -37q0 -17 -18 -26t-59 -9l-168 -2q-38 0 -58 11q-20 9 -20 26zM170 681q0 43 26 91q22 44 69 89q40 38 98 70q55 26 110 39q-25 45 -25 114q0 85 46 166q42 80 138 130q36 18 78 18q50 0 50 -24q0 -26 -79 -61 q-77 -32 -108 -91q-33 -60 -33 -136q0 -55 13 -109q65 -5 116 -35q52 -32 89 -95q0 14 -2 26v24q0 89 34 159q31 69 88 117q58 46 128 70q66 22 142 22h22q20 -2 22 -2q-43 89 -124 146q-84 56 -195 56q-135 0 -289 -87q-42 -17 -62 -17q-21 0 -21 15q0 29 72 100 q138 74 279 74q155 0 270 -83q114 -84 144 -219q92 -26 154 -90q59 -66 70 -165q89 80 190 80q65 0 128 -32q57 -29 111 -83q46 -51 76 -116q25 -62 25 -120t-27 -104q-32 -47 -91 -70q-104 -8 -284 -9q-162 -4 -396 -4q-91 0 -167.5 0.5t-139.5 1.5q-162 0 -303 4 q-177 1 -240 3q-105 3 -111 4q-91 49 -91 133zM250 1716q0 37 35 37q29 0 63 -35l131 -124q28 -27 28 -53q0 -36 -41 -36q-33 0 -77 32l-119 127q-20 29 -20 52zM279 707q0 -65 84 -105q19 1 98 3q36 0 103.5 0.5t165.5 1.5q102 0 184 1.5t145 3.5q35 0 90.5 0.5t131.5 2.5 l48 1q79 1 147.5 3t126.5 5q109 2 199 11q65 15 96 46q32 32 32 74q0 36 -21 74q-19 33 -60 70q-40 32 -89 50q-50 19 -104 19q-110 0 -205 -80q-27 130 -116 209q-92 76 -198 76q-67 0 -128 -30q-64 -32 -108 -92q-48 -60 -78 -159q-30 -98 -30 -224q-26 118 -90 174 q-67 55 -154 55q-50 0 -96 -16q-52 -18 -88 -45q-42 -29 -63 -62q-23 -36 -23 -67zM671 73l87 59l-87 72l19 21l88 -67v106h34v-104l100 54l16 -24l-96 -58l87 -70l-18 -24l-89 66v-104h-34v104l-90 -53zM804 1844q10 45 28 68q17 22 39 22q28 0 28 -35l-2 -5v-6l5 -235 q0 -53 -40 -53q-23 0 -35 20q-17 19 -21 57zM1046 232l89 61l-89 70l21 22l88 -68v107h34v-105l98 54l18 -23l-96 -57l87 -70l-19 -26l-88 67v-106h-34v106l-90 -54zM1261 1465q0 24 27 42l187 126q17 11 35 11q41 0 41 -37q0 -33 -48 -66l-113 -78q-50 -30 -87 -30 q-42 0 -42 32z" />
<glyph unicode="M" horiz-adv-x="2117" d="M30 1056q0 45 80 59l153 2q44 -7 66 -24q24 -18 24 -37q0 -17 -19 -25q-18 -10 -59 -10l-167 -2q-39 0 -57 12q-21 9 -21 25zM172 669q0 43 26 91q22 44 68 88q47 43 98 70q55 28 111 39q-26 46 -26 114q0 85 46 166q43 81 138 129q34 18 77 18q50 0 50 -24 q0 -26 -79 -60q-76 -32 -107 -91q-33 -60 -33 -136q0 -55 13 -109q60 -3 116 -35q52 -33 88 -94q0 14 -1 26v24q0 89 33 158q31 69 88 117q58 46 127 70q72 22 142 22h22q20 -2 22 -2q-42 86 -123 146q-85 55 -195 55q-135 0 -288 -87q-40 -16 -63 -16q-20 0 -20 14 q0 29 72 100q137 74 278 74q154 0 269 -83q114 -85 144 -218q91 -26 153 -90q59 -66 70 -164q87 79 190 79q67 0 127 -31q60 -32 111 -83q48 -55 75 -116q26 -65 26 -120q0 -58 -28 -103q-29 -46 -90 -70q-104 -8 -284 -9q-90 -3 -189 -3.5t-205 -0.5h-167.5t-138.5 2 q-145 0 -302 3q-89 1 -149 2t-91 2q-44 0 -71 1.5t-39 2.5q-91 49 -91 132zM251 1701q0 37 36 37q29 0 62 -35l131 -123q28 -27 28 -54q0 -35 -41 -35q-33 0 -77 32l-118 127q-21 27 -21 51zM281 695q0 -65 83 -105q36 2 98 4q36 0 103 0.5t166 1.5q201 1 328 3q53 2 221 4 l48 2q78 0 146.5 2t126.5 5q134 5 199 11q63 14 95 46t32 74q0 36 -21 74q-19 33 -60 70q-37 29 -89 50q-50 18 -103 18q-112 0 -205 -79q-27 129 -116 208q-90 76 -197 76q-67 0 -127 -30q-62 -31 -109 -92q-47 -62 -77 -158q-30 -99 -30 -223q-26 117 -90 173 q-66 55 -153 55q-50 0 -96 -16q-53 -20 -88 -45q-40 -29 -63 -62q-22 -33 -22 -67zM349 91l87 59l-87 72l19 20l88 -66v105h33v-104l100 54l16 -24l-95 -57l86 -70l-18 -24l-89 66v-105h-33v105l-90 -53zM723 249l89 61l-89 70l21 22l88 -68v107h33v-105l98 53l18 -22 l-95 -57l86 -70l-18 -26l-89 67v-105h-33v105l-90 -54zM804 1829q10 45 28 68q17 22 39 22q27 0 27 -35l-1 -6v-5l5 -234q0 -54 -40 -54q-22 0 -35 21q-17 19 -21 57zM1053 34l87 59l-87 71l19 21l88 -67v105h33v-103l100 54l16 -24l-96 -57l87 -70l-18 -23l-89 65v-104h-33 v104l-90 -54zM1260 1451q0 24 27 42l186 126q17 11 35 11q41 0 41 -37q0 -34 -48 -67l-112 -77q-51 -30 -87 -30q-42 0 -42 32zM1427 192l89 61l-89 70l21 22l88 -68v107h33v-105l98 53l18 -22l-96 -57l87 -70l-18 -26l-89 66v-105h-33v105l-90 -53z" />
<glyph unicode="N" horiz-adv-x="2119" d="M31 633q0 83 64 173q31 43 83 83.5t102 67.5q20 11 63 24q58 15 92 15q62 0 119 -27q55 -28 97 -81q0 139 78 235q80 96 215 134q20 6 51 10q33 4 65 4q163 0 284 -100q113 -94 138 -282q47 68 87 92q44 25 117 27h7q54 0 104 -31q42 -25 88 -66t75 -86q59 -92 59 -181 q0 -58 -29 -103q-30 -45 -92 -70q-96 -7 -288 -10q-180 -3 -412 -3h-174.5t-164.5 2q-125 1 -327 3q-76 1 -140 2t-116 2q-46 1 -82 2t-60 2q-53 30 -78 72q-25 39 -25 90zM159 652q0 -68 93 -105h28q48 -2 77 -2q48 0 121.5 0.5t172.5 1.5q215 0 349.5 1t189.5 1 q95 0 187.5 -1t182.5 -1q152 -2 264 -8q47 19 70 53q22 32 22 74q0 41 -20 85q-19 37 -56 78q-35 33 -82 57q-47 21 -93 21q-57 0 -105 -31q-54 -32 -96 -97q-50 177 -169 276q-120 97 -253 97q-150 0 -253 -117q-105 -119 -105 -334q-20 89 -74 130q-55 41 -130 41 q-51 0 -111 -19q-59 -23 -105 -53q-50 -35 -76 -72q-29 -40 -29 -76zM1071 154l94 65l-94 74l22 23l93 -72v113h35v-111l103 56l20 -23l-101 -60l91 -74l-19 -27l-94 70v-111h-35v111l-95 -57z" />
<glyph unicode="O" horiz-adv-x="2103" d="M15 748q0 83 64 173q65 88 161 140q-19 61 -19 124q0 91 45 165q41 73 112 123q72 49 154 74q80 25 160 25q68 0 120 -19q50 -21 70 -59q24 111 121 179q97 69 227 69q88 0 183 -37q89 -39 172 -119q79 -80 138 -206q56 -130 77 -298q85 -50 144 -142q59 -94 59 -181 q0 -58 -29 -103q-30 -45 -92 -70q-96 -7 -288 -10q-90 -2 -193.5 -3t-218.5 -1q-90 0 -174.5 0.5t-164.5 1.5q-63 1 -144.5 2t-181.5 2q-77 1 -141 2t-116 2q-46 0 -82 1.5l-60 2.5q-53 30 -78 72q-25 39 -25 90zM143 767q0 -68 93 -105h28q48 -2 77 -2q48 0 121.5 0.5 t172.5 1.5q215 0 349.5 1t189.5 1q95 0 187.5 -1t182.5 -1q150 -2 264 -8q47 19 70 53q22 32 22 74q0 41 -20 85q-19 37 -56 78q-40 35 -82 56q-46 22 -93 22q-54 0 -105 -31q-54 -32 -96 -97q-50 177 -169 276q-120 97 -253 97q-150 0 -253 -117q-105 -119 -105 -334 q-20 89 -74 130q-55 41 -130 41q-53 0 -111 -20q-59 -20 -105 -52q-50 -35 -76 -72q-29 -40 -29 -76zM299 1181q0 -42 15 -87q55 17 105 17q62 0 119 -27q56 -29 97 -82q0 140 78 236q77 94 197 128q-45 53 -106 80q-63 27 -136 27q-66 0 -132 -21q-67 -23 -121 -61 q-56 -42 -85 -93q-31 -54 -31 -117zM602 92l92 62l-92 76l20 21l93 -70v111h35v-109l105 57l18 -26l-102 -60l92 -74l-20 -25l-93 70v-111h-35v111l-95 -56zM956 1378q43 7 88 7q162 0 284 -99q120 -100 128 -282q44 61 97 92q51 29 107 29q22 0 37 -4q-20 134 -66 235 q-46 98 -111 164q-64 63 -136 95q-70 29 -144 29q-119 0 -200 -72q-84 -74 -84 -194zM997 259l93 64l-93 74l21 24l94 -72v113h35v-111l103 56l19 -23l-101 -61l92 -74l-20 -27l-93 70v-111h-35v111l-96 -56z" />
<glyph unicode="P" horiz-adv-x="2091" d="M4 771q0 83 64 173q65 87 162 140q-19 62 -19 125q0 93 44 165q44 74 113 123q72 49 154 74q84 25 159 25q67 0 121 -20q50 -21 70 -58q24 111 120 179q98 68 228 68q92 0 183 -37q92 -40 171 -118q80 -83 138 -207q57 -126 78 -297q86 -52 144 -142q58 -93 58 -181 q0 -60 -29 -103q-30 -46 -91 -70q-121 -9 -288 -10q-162 -4 -413 -4q-90 0 -174.5 0.5t-163.5 1.5q-63 0 -144.5 1.5t-182.5 2.5q-76 0 -140.5 1.5t-116.5 2.5q-103 1 -142 4q-53 28 -78 72q-25 42 -25 89zM133 791q0 -69 93 -106h27q25 -1 78 -1h121.5t172.5 1q430 3 539 3 q190 0 369 -3q171 -2 265 -7q46 19 70 52q21 33 21 74q0 43 -19 86q-21 39 -56 78q-38 34 -82 56q-47 21 -94 21q-55 0 -105 -31q-52 -31 -95 -97q-52 179 -169 276q-120 97 -253 97q-151 0 -253 -116q-105 -119 -105 -335q-20 86 -74 131q-54 40 -130 40q-57 0 -111 -19 q-60 -21 -105 -53q-50 -34 -76 -71q-29 -40 -29 -76zM208 129l92 62l-92 76l20 22l93 -70v111h35v-109l105 56l18 -25l-101 -61l91 -74l-19 -25l-94 70v-111h-35v111l-95 -56zM288 1205q0 -45 16 -88q54 18 105 18q62 0 119 -27q53 -29 97 -82q0 140 78 235q74 92 196 129 q-42 51 -105 79q-64 28 -136 28q-68 0 -132 -22q-67 -21 -121 -60q-55 -42 -86 -93q-31 -58 -31 -117zM604 296l93 65l-93 74l21 23l93 -72v113h35v-111l103 56l20 -23l-101 -60l91 -74l-19 -28l-94 71v-111h-35v111l-95 -57zM946 1401q41 8 87 8q164 0 284 -99 q121 -99 129 -282q46 63 97 91q49 29 107 29q21 0 37 -4q-20 135 -66 236q-48 100 -111 163q-65 64 -136 96q-74 29 -144 29q-119 0 -201 -72q-83 -74 -83 -195zM952 69l91 62l-91 76l19 21l93 -70v111h35v-109l105 57l18 -26l-101 -60l91 -74l-19 -25l-94 70v-110h-35v110 l-95 -57zM1347 236l93 64l-93 74l21 24l93 -72v112h35v-111l103 57l20 -23l-101 -61l91 -74l-19 -27l-94 70v-111h-35v111l-95 -56z" />
<glyph unicode="Q" horiz-adv-x="2126" d="M39 1090q0 44 79 59l153 2q42 -6 66 -24q24 -20 24 -37t-18 -26q-20 -9 -59 -9l-168 -2q-39 0 -57 11q-20 8 -20 26zM180 703q0 42 26 90q22 43 68 89q43 40 98 70q57 27 111 38q-26 48 -26 114q0 85 46 166q42 79 138 129q35 19 78 19q49 0 49 -24q0 -27 -79 -61 q-76 -32 -107 -90q-33 -62 -33 -137q0 -54 13 -108q60 -5 116 -35q52 -33 89 -94l-2 26v24q0 87 33 158q32 69 88 116q55 45 127 70q67 22 142 22h22q20 -2 23 -2q-45 89 -124 146q-82 55 -195 55q-135 0 -288 -86q-39 -17 -62 -17q-21 0 -21 15q0 30 72 99q137 74 279 74 q153 0 268 -83t144 -217q93 -28 153 -91q59 -65 70 -164q87 79 190 79q67 0 127 -31q63 -33 111 -83q47 -53 75 -116q26 -61 26 -120q0 -57 -27 -103q-30 -47 -91 -70q-104 -8 -284 -9q-160 -4 -394 -4q-90 0 -166.5 0.5t-139.5 1.5q-161 0 -302 4q-177 1 -240 3 q-105 3 -110 4q-91 50 -91 133zM260 1735q0 37 35 37q28 0 62 -35l131 -124q28 -26 28 -53q0 -35 -41 -35q-35 0 -77 31l-118 127q-20 27 -20 52zM267 120q0 25 26 58l37 35q51 77 70 77q7 0 7 -13q0 -26 -24 -90l-2 -50q-10 -28 -27 -41q-22 -14 -43 -14q-44 0 -44 38z M289 729q0 -65 83 -105q21 1 98 3q36 0 103.5 0.5t165.5 1.5q101 0 183 1.5t145 2.5q34 0 89.5 1t131.5 3l48 1q79 1 147.5 3t125.5 5q106 2 199 11q65 15 96 46t31 74q0 36 -20 73q-23 37 -61 70q-41 33 -89 50q-50 18 -103 18q-112 0 -204 -79q-29 131 -117 208 q-88 76 -197 76q-66 0 -127 -30q-61 -29 -109 -92t-77 -158t-29 -223q-27 117 -91 173q-67 56 -153 56q-47 0 -96 -17q-48 -16 -88 -44q-41 -30 -63 -63q-22 -35 -22 -66zM584 310q0 23 26 56l37 35q51 79 70 79q7 0 7 -13q0 -26 -24 -90l-3 -48q-8 -27 -28 -43 q-20 -14 -43 -14q-42 0 -42 38zM813 1862q8 43 27 68q19 22 39 22q28 0 28 -35l-2 -5v-6l5 -234q0 -53 -40 -53q-21 0 -35 20q-17 21 -21 57zM820 124q0 24 26 57l35 35q51 78 70 78q7 0 7 -13q0 -25 -24 -89l-2 -49q-9 -28 -27 -41q-21 -15 -43 -15q-42 0 -42 37zM1190 43 l87 59l-87 72l19 20l88 -66v105h33v-103l100 53l17 -24l-96 -57l86 -70l-18 -24l-89 66v-104h-33v104l-90 -53zM1268 1484q0 23 27 43l187 125q17 11 35 11q40 0 40 -37q0 -33 -48 -66l-112 -78q-51 -29 -87 -29q-42 0 -42 31zM1461 275l89 61l-89 70l21 22l88 -68v107h33 v-105l98 53l18 -22l-96 -57l87 -70l-18 -26l-89 67v-105h-33v105l-90 -54z" />
<glyph unicode="R" horiz-adv-x="2118" d="M30 824q0 84 64 172q62 86 161 140q-19 62 -19 125q0 91 45 165q41 74 113 123q69 48 153 74q80 25 160 25q68 0 120 -19q52 -24 70 -59q24 111 121 179q96 68 228 68q90 0 182 -36q89 -39 172 -119q79 -80 138 -206q55 -128 78 -298q86 -52 144 -142q58 -95 58 -181 q0 -58 -29 -103q-30 -45 -92 -70q-96 -7 -288 -10q-90 -2 -193.5 -3t-218.5 -1q-90 0 -174.5 0.5t-163.5 1.5q-63 1 -144.5 2t-182.5 2q-77 1 -141 2t-116 2q-46 0 -81.5 1.5t-60.5 2.5q-52 27 -78 72q-25 39 -25 90zM158 843q0 -69 93 -105h28q50 -2 78 -2q47 0 120.5 0.5 t172.5 1.5q215 0 350 1t189 1q95 0 187.5 -1t182.5 -1q152 -2 264 -8q47 19 70 53q22 32 22 73q0 42 -20 86q-21 39 -56 78q-40 35 -82 56q-46 22 -93 22q-54 0 -105 -32q-53 -30 -95 -97q-51 179 -170 276q-120 98 -253 98q-150 0 -253 -117q-105 -119 -105 -335 q-18 86 -74 131q-55 41 -130 41q-53 0 -111 -20q-58 -21 -105 -52q-50 -35 -76 -72q-29 -40 -29 -76zM168 170q0 27 27 60l39 37q53 82 74 82q8 0 8 -14q0 -27 -26 -95l-1 -53q-11 -28 -30 -43q-21 -15 -44 -15q-47 0 -47 41zM314 1257q0 -42 15 -87q57 17 105 17 q62 0 119 -27q56 -29 97 -82q0 140 78 236q77 94 197 128q-45 53 -105 80q-65 27 -137 27q-66 0 -132 -21q-67 -23 -121 -61q-54 -40 -85 -93q-31 -54 -31 -117zM503 370q0 26 27 58l39 38q54 83 74 83q7 0 7 -13q0 -29 -25 -96l-4 -50q-8 -30 -29 -45q-21 -16 -45 -16 q-44 0 -44 41zM752 174q0 27 27 60l37 37q54 82 74 82q7 0 7 -14q0 -27 -25 -93l-2 -53q-10 -30 -29 -43q-21 -15 -45 -15q-44 0 -44 39zM971 1454q43 7 88 7q162 0 284 -99q120 -100 128 -282q44 61 98 91q49 30 106 30q22 0 38 -4q-23 141 -67 235q-47 99 -111 164 q-64 63 -136 95q-74 29 -144 29q-119 0 -200 -72q-84 -74 -84 -194zM1148 32l92 62l-92 76l20 21l93 -70v111h35v-109l105 56l18 -25l-102 -60l92 -74l-19 -24l-94 69v-110h-35v110l-95 -57zM1428 333l94 64l-94 74l22 24l93 -72v113h35v-111l103 56l20 -23l-101 -61l91 -74 l-19 -27l-94 70v-111h-35v111l-95 -56z" />
<glyph unicode="S" horiz-adv-x="2252" d="M11 1016v12h2117v40h13v-52h-2130zM11 1145v12h2117v40h13v-52h-2130zM15 628v12h2117v39h13v-51h-2130zM15 770v12h2117v39h13v-51h-2130zM15 896v11h2117v40h13v-51h-2130zM18 -8l424 626h157l133 -269l101 267l68 -1l-161 -401l-216 398l-435 -613zM192 1464q0 9 9 18 q9 7 25 9l89 4q21 -4 32 -10q11 -7 11 -17q0 -23 -46 -24l-98 2q-22 0 -22 18zM285 1221q0 14 16 29l78 71q13 11 29 11q21 0 21 -18q0 -17 -18 -36l-76 -67q-14 -7 -28 -7q-22 0 -22 17zM311 1784q0 16 18 16q14 0 32 -14l60 -53q15 -18 15 -34q0 -17 -16 -17q-17 0 -41 21 l-52 50q-16 17 -16 31zM412 1477q0 41 22 81q21 37 67 60q17 7 26 7q19 0 19 -13q0 -12 -25 -26q-33 -19 -51 -49q-17 -31 -17 -67q0 -32 13 -60q9 -29 32 -56q19 -23 51 -39q31 -15 67 -15q58 0 123 42q26 24 42 63q13 33 13 73q0 33 -11 68q-13 32 -35 58q-23 25 -55 41 q-35 14 -73 14q-68 0 -144 -42q-23 -8 -32 -8q-12 0 -12 9q0 10 19 36q77 43 151 43q48 0 95 -20q42 -20 75 -53q29 -32 49 -76q17 -44 17 -85q0 -46 -21 -86q-22 -41 -63 -67q-68 -42 -134 -42q-45 0 -82 18q-38 15 -67 47q-29 33 -43 69q-16 40 -16 75zM588 1843 q5 41 30 41q22 0 25 -39l-3 -74q-2 -20 -8 -31q-8 -12 -17 -12q-23 0 -24 44zM598 1202q-2 41 30 41q26 0 25 -39l-2 -42h-52zM813 1275q0 16 17 16t40 -18l64 -61q20 -19 20 -32q0 -15 -17 -15q-19 0 -40 20l-65 57q-19 17 -19 33zM820 1659q0 16 25 39l70 43q16 7 32 7 q21 0 21 -13q0 -15 -29 -33l-70 -45q-20 -12 -33 -12q-16 0 -16 14zM866 694l15 30h72l-18 -30h-69zM869 1496q0 21 38 26l81 -2q21 -2 32 -8q12 -8 12 -17q0 -19 -40 -19l-84 -1q-39 0 -39 21zM910 827l10 16l26 14h106l-43 -30h-99zM1022 949l26 25h116l-32 -25h-110z M1124 1076l15 24h87l-15 -24h-87zM1165 1181l137 408l179 140l122 88l184 -432l94 -210l-69 -3l-71 142l-160 396l-101 -68l-124 -100l-114 -362zM1830 1103h54l5 -27h-55zM1837 979h54l5 -29l-55 1zM1848 857h53l5 -31l-54 1zM1857 732h53l5 -33l-54 1zM1875 618h51 l202 -617l-61 1z" />
<glyph unicode="T" horiz-adv-x="2154" d="M23 745v14h2012v50h12v-64h-2024zM23 905v14h2012v49h12v-63h-2024zM27 264v14h2012v49h11v-63h-2023zM27 440v14h2012v49h11v-63h-2023zM27 596v14h2012v49h11v-63h-2023zM29 102v14h2012v49h11v-63h-2023zM239 1470q0 43 37 43q27 0 55 -29l134 -129q49 -54 49 -96 q0 -41 -37 -41t-84 43l-119 123q-35 47 -35 86zM494 682h115v-27h-113zM508 856h115v-23h-109zM539 981q37 174 163 262q125 88 284 88q79 0 164 -25q74 -23 142 -70q63 -45 105 -108q37 -65 44 -144h-79q-36 125 -139 193q-106 68 -231 68q-128 0 -233 -70 q-107 -72 -136 -194h-84zM591 495v31h115l6 -31h-121zM722 378h130l-4 -34h-122zM934 1714q0 35 13 53q15 18 35 18q24 0 45 -22q21 -27 23 -62l8 -211q-7 -52 -23 -75q-20 -29 -43 -29q-49 0 -52 98zM1120 372h152l-6 -32h-144zM1303 501v25h115v-25h-115zM1362 856h114 l-1 -25l-109 -2zM1377 688h115v-29l-113 2zM1478 1214q0 44 47 96l165 111q28 10 49 10q29 0 47 -12q17 -15 17 -33q0 -27 -39 -45l-204 -148q-25 -22 -47 -22q-35 0 -35 43z" />
<glyph unicode="U" horiz-adv-x="2117" d="M30 1159q0 44 79 59l153 2q43 -7 66 -24q24 -18 24 -37q0 -17 -18 -26t-59 -9l-168 -2q-39 0 -57 11q-20 9 -20 26zM174 772q0 46 25 94q27 48 72 90q46 42 105 72q57 27 115 37q-33 72 -33 144q0 77 42 145q41 68 133 115q34 18 77 18q50 0 50 -24q0 -25 -79 -61 q-75 -32 -106 -81q-33 -50 -33 -120q0 -58 19 -132q62 -5 112 -35q51 -35 85 -96q0 2 -2 26v24q0 87 33 158q32 67 91 114q52 45 127 70q69 24 143 24h8q4 -2 11 -2h18q-44 90 -132 146q-87 52 -194 52q-136 0 -276 -83q-42 -17 -63 -17q-20 0 -20 15q0 30 72 99 q141 78 287 78q150 0 264 -83q109 -83 143 -223q88 -26 150 -90q57 -64 70 -163q89 80 190 80q64 0 127 -32q62 -33 110 -83q46 -51 76 -116q26 -63 26 -119t-28 -104q-31 -47 -90 -70q-98 -8 -194 -9l-157 -232h168l-593 -489l160 375h-147l189 344h-110h-113 q-75 0 -141 0.5t-124 1.5q-69 0 -136.5 0.5t-132.5 1.5q-63 0 -114 1t-90 3q-72 1 -102 3q-88 50 -88 133zM225 227q0 24 26 57l37 35q54 77 72 77q7 0 7 -13q0 -28 -26 -90l-1 -50q-12 -29 -28 -40q-21 -15 -42 -15q-45 0 -45 39zM251 1804q0 37 35 37q29 0 63 -35 l131 -124q27 -26 27 -53q0 -35 -40 -35q-34 0 -78 31l-118 127q-20 29 -20 52zM601 365q0 22 26 55l39 35q52 79 72 79q5 0 5 -13q0 -24 -24 -90l-3 -50q-8 -28 -28 -40q-21 -15 -42 -15q-45 0 -45 39zM736 118q0 26 26 57l37 35q51 77 71 77q6 0 6 -11q0 -26 -24 -90 l-2 -52q-10 -29 -28 -40q-20 -15 -42 -15q-44 0 -44 39zM804 1931q8 44 28 68q18 23 38 23q28 0 28 -35l-2 -6v-5l6 -235q0 -53 -41 -53q-20 0 -35 20q-18 21 -20 57zM1215 317h151l-109 -232l334 271h-120l175 276h-262zM1259 1553q0 25 28 43l186 125q15 11 35 11 q40 0 40 -37q0 -34 -47 -66l-113 -77q-50 -30 -86 -30q-43 0 -43 31z" />
<glyph unicode="V" horiz-adv-x="2179" d="M15 104l271 443h72l-276 -441zM126 821q0 85 67 172q63 84 162 133q-31 67 -31 136q0 79 44 146q42 65 116 113q77 47 157 70q82 25 162 25q70 0 120 -19q51 -22 74 -59q15 113 120 179q104 67 242 67q90 0 179 -32q87 -34 157 -100q69 -66 112 -171q42 -107 42 -248v-32 q-1 -17 -1 -37q95 -44 161 -141q28 -42 50 -95q17 -47 17 -95q0 -61 -28 -103q-29 -44 -90 -69q-64 -3 -175 -6q-104 -3 -214 -3q-49 0 -86 2h-91l-378 -2h-144.5t-104.5 2h-110t-121 1q-64 1 -109.5 2t-71.5 2q-28 0 -59 0.5t-65 1.5q-53 29 -76 71q-27 39 -27 89zM229 99 l271 442h72l-276 -440zM406 1225q0 -36 10 -68q58 19 106 19q128 0 214 -107q0 136 76 227q74 91 196 130q-39 57 -100 87q-63 29 -132 29q-66 0 -131 -23q-67 -26 -121 -69q-53 -44 -86 -101q-32 -60 -32 -124zM460 99l270 442h73l-277 -440zM724 -87l614 506h-174l147 234 h-58l-169 -278h124l-345 -280l113 240h-157l201 317h-64l-219 -351h153zM1052 1456q2 -18 2 -19q39 6 76 6q166 0 285 -96q117 -98 126 -276q82 118 211 118q0 6 2 32v29q0 114 -34 204q-34 86 -92 143q-57 53 -129 82q-74 27 -147 27q-125 0 -212 -63q-88 -66 -88 -170v-17 zM1310 87l270 443h73l-277 -441zM1569 87l271 443h72l-276 -441z" />
<glyph unicode="W" horiz-adv-x="2107" d="M20 1144q0 44 79 59l153 1q42 -5 66 -24q24 -18 24 -36q0 -17 -18 -26t-59 -9l-168 -2q-41 0 -57 11q-20 9 -20 26zM164 757q0 46 25 94q27 48 72 90q46 42 105 72q54 25 115 37q-34 74 -34 143q0 76 43 146t133 114q33 19 77 19q50 0 50 -24q0 -27 -79 -61 q-75 -32 -106 -81q-33 -50 -33 -120q0 -57 19 -133q60 -4 112 -35q50 -34 85 -95q0 1 -2 25v24q0 88 33 159q33 68 91 114q52 45 127 70q69 24 143 24h8q4 -2 11 -2h18q-46 92 -133 146q-86 51 -193 51q-139 0 -276 -83q-40 -16 -63 -16q-20 0 -20 15q0 28 72 99 q141 78 287 78q150 0 264 -83q110 -85 143 -223q89 -28 150 -91q57 -64 70 -162q87 79 189 79q67 0 128 -31q60 -32 110 -83q47 -54 76 -116q26 -65 26 -120t-28 -103q-30 -46 -90 -70q-98 -8 -194 -9l-157 -232h168l-593 -490l160 375h-147l189 345h-110h-113 q-75 0 -141 0.5t-124 1.5h-136.5t-132.5 2q-128 1 -205 3q-36 1 -61 2t-40 2q-88 49 -88 133zM165 200q0 22 26 55l37 35q52 80 70 80q8 0 8 -13q0 -27 -24 -91l-4 -47q-8 -29 -28 -43q-20 -15 -42 -15q-43 0 -43 39zM241 1789q0 37 35 37q29 0 63 -35l131 -124 q27 -26 27 -53q0 -35 -40 -35q-34 0 -78 31l-118 127q-20 29 -20 52zM457 318q0 26 26 57l35 35q51 78 70 78q7 0 7 -13q0 -25 -24 -89l-2 -50q-9 -27 -28 -40q-20 -15 -42 -15q-42 0 -42 37zM602 49l87 59l-87 72l19 20l88 -66v105h33v-103l100 53l17 -24l-96 -57l86 -70 l-18 -24l-89 66v-104h-33v104l-90 -53zM794 1916q9 44 28 68q17 22 38 22q28 0 28 -35l-2 -5v-6l6 -234q0 -53 -41 -53q-21 0 -35 20q-18 20 -20 57zM842 355l87 59l-87 72l18 20l89 -66v105h33v-103l99 53l17 -24l-96 -57l87 -70l-19 -24l-88 66v-105h-33v105l-90 -53z M1205 301h151l-109 -232l334 271h-120l175 277h-262zM1249 1538q0 24 28 42l186 126q17 11 35 11q40 0 40 -37q0 -33 -47 -66l-113 -78q-51 -29 -87 -29q-42 0 -42 31z" />
<glyph unicode="X" horiz-adv-x="2109" d="M18 918q0 85 69 174q64 86 165 137q-31 67 -31 138q0 81 45 150q42 66 118 114q75 48 160 72q87 26 165 26q69 0 123 -20q51 -21 76 -60q14 113 122 183q107 68 247 68q93 0 183 -33q85 -33 160 -101q73 -72 114 -176q43 -107 43 -252v-33q-2 -34 -2 -37q97 -45 165 -144 q32 -50 51 -98q18 -51 18 -97q0 -60 -30 -105q-28 -44 -91 -70q-33 -3 -78 -4t-101 -2q-53 -2 -107.5 -3t-110.5 -1q-12 0 -88 2h-93l-60 -2h-263h-62q-84 0 -147.5 0.5t-107.5 1.5q-53 0 -111.5 0.5t-123.5 1.5q-66 1 -112 2t-73 2q-29 0 -60.5 0.5t-66.5 1.5 q-53 29 -77 72q-28 42 -28 92zM75 145l91 62l-91 76l19 22l94 -70v110h35v-108l105 56l17 -25l-101 -61l92 -73l-20 -26l-93 70v-111h-35v111l-96 -56zM305 1330q0 -36 9 -70q55 19 109 18q131 0 218 -108q0 139 78 232q74 92 200 132q-41 60 -103 90q-63 29 -134 29 q-68 0 -134 -24q-67 -24 -123 -70q-55 -46 -87 -103q-33 -60 -33 -126zM355 447l94 64l-94 74l21 23l94 -72v113h35v-111l103 57l20 -24l-102 -60l92 -74l-20 -27l-93 70v-111h-35v111l-95 -57zM716 -9l626 516h-177l149 239h-58l-173 -283h127l-352 -286l115 245h-160 l204 323h-65l-223 -358h156zM964 1565q2 -18 2 -19q39 6 78 6q168 0 289 -98q121 -99 129 -282q85 121 216 121q0 5 2 33v29q0 118 -35 208q-37 91 -94 146q-60 57 -132 84q-74 27 -150 27q-127 0 -216 -64q-89 -67 -89 -173v-18zM1227 169l68 1l282 450h-74zM1491 169 l276 451h74l-282 -450z" />
<glyph unicode="Y" horiz-adv-x="2112" d="M25 1169q0 44 79 59l153 2q43 -7 67 -24q24 -18 24 -37q0 -17 -19 -26q-18 -9 -59 -9l-168 -2q-37 0 -57 11q-20 9 -20 26zM169 782q0 47 26 94q25 47 71 90q43 40 106 72q55 27 114 37q-33 72 -33 144q0 77 42 145q41 67 133 115q34 18 77 18q50 0 50 -24q0 -25 -79 -61 q-75 -32 -105 -81q-34 -49 -34 -120q0 -52 19 -132q62 -5 112 -35q51 -35 85 -96q0 2 -2 26v24q0 87 33 158q34 69 91 114q54 45 127 70q69 24 143 24h8q2 -1 11 -1h18q-46 91 -132 145q-87 52 -194 52q-136 0 -276 -83q-42 -17 -63 -17q-20 0 -20 15q0 29 72 100 q141 77 287 77q150 0 264 -83q109 -83 143 -223q88 -26 150 -90q57 -64 70 -163q89 80 190 80q64 0 127 -32q62 -33 110 -83q49 -55 76 -116q26 -63 26 -119q0 -59 -28 -104q-31 -47 -90 -70q-49 -3 -97.5 -6t-96.5 -3l-156 -232h167l-593 -489l160 375h-147l190 344h-111 h-112q-75 0 -141.5 0.5t-124.5 1.5q-69 0 -136.5 0.5t-132.5 1.5q-63 0 -114 1.5t-90 2.5q-72 1 -102 3q-88 50 -88 133zM246 1814q0 37 35 37q29 0 63 -35l131 -124q27 -26 27 -53q0 -35 -40 -35q-34 0 -78 31l-118 128q-20 27 -20 51zM335 131l86 59l-86 72l18 21l89 -67 v105h33v-103l99 54l17 -24l-96 -58l87 -70l-19 -24l-88 67v-105h-33v105l-91 -54zM648 355l88 60l-88 70l20 22l89 -68v107h33v-105l98 54l18 -23l-96 -57l87 -70l-19 -26l-88 67v-105h-33v105l-91 -54zM799 1941q9 46 28 68q18 23 38 23q28 0 28 -35l-2 -6v-5l6 -235 q0 -53 -41 -53q-20 0 -35 20q-18 21 -20 57zM1210 327h151l-109 -232l334 271h-120l175 276h-261zM1254 1563q0 25 28 43l186 125q15 11 35 11q41 0 41 -37q0 -33 -48 -66l-113 -77q-50 -30 -86 -30q-43 0 -43 31z" />
<glyph unicode="Z" horiz-adv-x="2103" d="M15 873q0 83 64 173q63 87 161 140q-19 62 -19 125q0 90 44 165q43 72 113 123q72 49 154 74q85 25 160 25q66 0 120 -20q50 -21 70 -58q24 111 121 179q96 68 227 68q92 0 183 -37q92 -40 171 -118q80 -81 139 -207q56 -128 77 -297q84 -51 144 -142q59 -96 59 -181 q0 -60 -30 -103q-30 -46 -91 -70q-99 -9 -288 -10q-90 -3 -193.5 -3.5t-218.5 -0.5q-90 0 -174.5 0.5t-164.5 1.5q-63 0 -144.5 1t-181.5 3q-77 0 -141 1t-116 3q-105 1 -142 4q-53 28 -78 72q-25 39 -25 89zM137 149l91 62l-91 76l19 22l94 -70v111h35v-109l105 56l17 -25 l-101 -61l92 -74l-20 -25l-93 70v-111h-35v111l-96 -56zM299 1307q0 -43 15 -88q54 18 105 18q62 0 119 -27q56 -30 97 -82q0 140 78 235q74 92 197 129q-44 52 -106 79q-66 28 -136 28q-68 0 -132 -22q-66 -21 -121 -60q-56 -42 -85 -93q-31 -55 -31 -117zM389 419l93 64 l-93 74l21 23l93 -72v113h35v-111l103 57l20 -24l-101 -60l91 -74l-19 -27l-94 70v-111h-35v111l-95 -57zM685 -61l169 396h-155l223 368l65 5l-204 -338h159l-115 -245l352 286h-126l172 283h59l-150 -238h178zM956 1503q41 8 87 8q163 0 285 -99q120 -100 128 -282 q46 63 97 91q49 29 107 29q22 0 37 -4q-20 133 -66 236q-48 100 -111 163q-65 64 -136 96q-74 29 -144 29q-119 0 -200 -72q-84 -74 -84 -195zM1228 150l92 63l-92 75l19 22l94 -70v111h35v-109l105 56l18 -25l-102 -60l92 -74l-20 -26l-93 70v-111h-35v111l-95 -56z M1521 420l93 64l-93 74l21 23l93 -71v112h35v-111l104 57l19 -23l-101 -61l91 -74l-19 -27l-94 70v-111h-35v111l-95 -56z" />
<glyph unicode="a" horiz-adv-x="1920" d="M111 966q0 19 18 39q20 17 51 20l183 8q42 -7 65 -22q23 -17 23 -37q0 -47 -94 -51l-201 4q-45 3 -45 39zM301 444q0 29 33 61l160 154q30 24 59 24q43 0 43 -41q0 -36 -37 -75l-155 -146q-35 -14 -58 -14q-45 0 -45 37zM355 1654q0 35 36 35q30 0 66 -29l123 -115 q31 -39 31 -73q0 -37 -33 -37q-35 0 -84 45l-107 108q-32 34 -32 66zM561 995q0 93 45 174q43 79 136 129q31 14 53 14q39 0 39 -27q0 -29 -51 -57q-68 -39 -103 -104q-35 -67 -35 -144q0 -63 25 -131q23 -68 67 -118q43 -54 105 -84q61 -33 135 -33q120 0 252 90 q57 60 86 135q26 73 26 158q0 74 -22 145q-25 69 -72 125q-46 53 -112 88q-70 31 -150 31q-137 0 -293 -90q-44 -17 -65 -17q-25 0 -25 19q0 26 39 77q157 93 307 93q102 0 195 -43q90 -44 153 -115q62 -70 101 -162q35 -93 35 -184q0 -97 -43 -184q-43 -86 -129 -146 q-138 -90 -275 -90q-90 0 -168 39q-80 38 -135 102q-57 65 -88 148q-33 79 -33 162zM920 1783q13 88 61 88q45 0 51 -84l-6 -160q-2 -42 -16 -67q-15 -25 -35 -25q-45 0 -49 94zM936 337q10 92 59 92q48 0 60 -100l-11 -178q-3 -44 -18 -68t-35 -24q-21 0 -34 26 q-17 26 -17 66zM1380 561q0 32 35 32t82 -39l131 -131q41 -37 41 -67q0 -33 -35 -33q-39 0 -82 43l-133 123q-39 36 -39 72zM1395 1386q0 36 51 84l143 92q33 16 66 16q43 0 43 -28q0 -33 -60 -72l-143 -96q-39 -27 -68 -27q-32 0 -32 31zM1495 1035q0 45 78 56l166 -4 q42 -4 65 -17q25 -17 25 -37q0 -41 -82 -41l-172 -2q-80 0 -80 45z" />
<glyph unicode="b" horiz-adv-x="2174" d="M66 898q0 19 18 37q17 16 48 19l173 8q38 -6 62 -22q21 -15 21 -34q0 -45 -89 -49l-190 4q-43 1 -43 37zM247 403q0 27 31 58l151 146q29 23 56 23q41 0 41 -39q0 -33 -35 -72l-147 -137q-33 -14 -55 -14q-42 0 -42 35zM297 1550q0 33 35 33q29 0 62 -28l116 -108 q30 -38 30 -70q0 -35 -31 -35q-35 0 -80 43l-101 102q-31 33 -31 63zM493 925q0 89 43 165q40 75 128 122q29 14 50 14q37 0 37 -26q0 -27 -48 -54q-64 -38 -97 -99q-33 -59 -33 -136q0 -64 23 -124q21 -65 64 -112q41 -52 99 -80q57 -31 128 -31q115 0 238 85q45 36 68 66 q19 22 41 68h-153q-33 -1 -55.5 -1.5t-35.5 -0.5q3 0 -47 2h-42q-89 10 -128 41q-43 31 -43 74q0 51 56 95q56 40 136 40q97 0 188 -67q24 17 47 36q2 2 29 26q10 9 29 23q7 7 23 19q-66 111 -147 171q-84 60 -190 60q-128 0 -284 -91q-44 -16 -62 -16q-23 0 -23 18 q0 25 37 74q153 89 302 89q142 0 256 -78q112 -77 173 -205q88 31 161 31q61 0 111 -24q46 -24 76 -77q71 19 141 19q125 0 204 -56q78 -56 78 -118q0 -65 -82 -72q-105 0 -196 -1t-167 -1q-67 -3 -146 -4.5t-170 -3.5h-6q-22 -70 -60 -118q-40 -51 -89 -84 q-130 -85 -260 -85q-87 0 -159 37q-74 33 -129 97q-52 59 -83 140q-31 73 -31 153zM792 904q0 -23 31 -39q29 -19 87 -23q116 0 224.5 1.5t210.5 3.5q54 0 107 0.5t106 1.5q49 1 105.5 2t119.5 2l10 2q66 0 108.5 1t62.5 1q31 0 31 25q0 35 -58 70q-59 33 -163 33 q-75 0 -161 -19q-23 45 -66 73q-48 26 -107 26q-77 0 -161 -43q-87 -47 -155 -134q-49 45 -99 70q-53 21 -101 21q-58 0 -93 -23q-39 -24 -39 -52zM833 1672q13 83 58 83q43 0 48 -79l-6 -152q-2 -40 -15 -64q-14 -23 -33 -23q-43 0 -47 89zM848 302q10 87 56 87 q45 0 57 -95l-10 -169q-5 -45 -18 -64q-14 -23 -32 -23q-20 0 -33 25q-16 23 -16 62zM1269 513q0 32 33 32q31 0 78 -37l124 -125q39 -35 39 -64q0 -31 -33 -31q-37 0 -78 41l-126 117q-37 34 -37 67zM1283 1295q0 35 48 80l136 87q32 16 62 16q41 0 41 -27q0 -32 -56 -68 l-136 -92q-40 -25 -64 -25q-31 0 -31 29z" />
<glyph unicode="c" horiz-adv-x="2116" d="M24 973q0 44 79 59l154 1q42 -5 66 -24q24 -18 24 -36q0 -17 -18 -26q-20 -9 -59 -9l-169 -2q-40 0 -57 11q-20 9 -20 26zM166 584q0 43 26 91q22 44 69 89q41 39 97 70q50 25 111 39q-26 48 -26 114q0 83 47 167q43 81 138 129q38 19 78 19q50 0 50 -24q0 -27 -80 -61 q-77 -34 -107 -91q-33 -62 -33 -137q0 -53 13 -109q62 -3 116 -35q51 -31 89 -94q0 2 -2 26v24q0 88 33 159q31 67 89 116q55 45 127 70q67 22 143 22h22q10 -1 22 -1q-41 85 -124 146q-85 55 -195 55q-136 0 -289 -87q-42 -17 -63 -17q-20 0 -20 15q0 29 72 100 q137 74 279 74q153 0 270 -83q114 -85 144 -218q91 -26 153 -91q58 -64 71 -164q87 79 190 79q67 0 127 -31q60 -32 111 -83q49 -57 76 -117q26 -65 26 -120q0 -58 -28 -103t-90 -71q-104 -8 -285 -9q-91 -2 -190 -3t-205 -1q-91 0 -167.5 0.5t-139.5 1.5q-72 0 -148 1 t-155 3q-190 1 -240 4q-87 1 -111 3q-91 50 -91 133zM246 1619q0 37 35 37q29 0 63 -35l131 -124q28 -27 28 -53q0 -35 -41 -35q-34 0 -78 31l-118 128q-20 25 -20 51zM275 610q0 -65 83 -105q4 0 98 4h104.5t165.5 2q201 1 329 3q35 0 90.5 1.5t131.5 2.5l48 2q170 1 273 7 q136 5 200 11q63 14 96 46q32 32 32 74q0 38 -21 74q-19 33 -61 71q-38 29 -88 50q-51 18 -104 18q-112 0 -205 -79q-30 133 -117 208q-88 76 -197 76q-67 0 -128 -30q-61 -29 -109 -92q-49 -65 -77 -159q-30 -98 -30 -223q-26 118 -91 173q-67 56 -153 56q-47 0 -96 -17 q-50 -17 -89 -44q-41 -30 -63 -63q-22 -35 -22 -67zM800 1747q8 42 28 68q17 22 39 22q27 0 27 -35l-1 -5v-6l5 -235q0 -53 -41 -53q-20 0 -35 20q-18 21 -20 58zM1256 1368q0 23 28 42l187 126q15 11 35 11q41 0 41 -37q0 -33 -48 -66l-113 -78q-50 -29 -87 -29 q-43 0 -43 31z" />
<glyph unicode="d" horiz-adv-x="2143" d="M20 1119q0 41 73 55l142 2q41 -7 62 -23q22 -18 22 -34q0 -15 -17 -24q-18 -9 -55 -9l-155 -1q-38 0 -53 10q-19 8 -19 24zM61 448q0 83 64 173q63 87 161 140q-19 62 -19 125q0 90 44 165q38 65 101 114q11 73 38 122q42 76 129 120q29 17 71 17q47 0 47 -22 q0 -24 -74 -57q-71 -29 -99 -84q-18 -32 -20 -42q31 15 73 29q84 25 159 25q64 0 120 -19q52 -24 69 -59q24 111 121 179v0l1 1q-17 23 -65 60q-71 51 -181 51q-125 0 -267 -81q-38 -15 -58 -15q-19 0 -19 14q0 27 67 92q126 69 258 69q144 0 247 -75q61 -44 87 -77 q71 29 156 29q93 0 182 -37q92 -40 171 -118q80 -83 138 -207q56 -128 77 -297q86 -52 143 -142q58 -93 58 -181q0 -60 -29 -103q-29 -45 -91 -70q-119 -9 -286 -10q-162 -4 -411 -4q-90 0 -174.5 0.5t-162.5 1.5q-63 0 -144 1.5t-182 2.5q-76 0 -140 1.5t-116 2.5 q-104 1 -141 4q-53 28 -78 72q-25 42 -25 89zM189 468q0 -69 93 -105h27q25 -2 78 -2h120t172 2q214 0 348.5 1t188.5 1q95 0 186.5 -1t181.5 -1q80 -2 146 -3.5t118 -4.5q46 19 70 52q21 33 21 74t-20 86q-21 39 -56 78q-38 35 -81 56q-49 22 -93 22q-54 0 -105 -32 q-50 -29 -95 -97q-49 176 -168 276q-120 98 -252 98q-150 0 -252 -117q-105 -119 -105 -335q-20 87 -73 131q-55 41 -130 41q-53 0 -111 -20q-59 -21 -104 -52q-50 -35 -76 -72q-29 -40 -29 -76zM225 1720q0 34 32 34q28 0 58 -33l122 -115q25 -24 25 -50q0 -32 -37 -32 q-31 0 -72 29l-109 118q-19 26 -19 49zM344 882q0 -45 16 -87q55 17 104 17q62 0 118 -27q53 -26 97 -82q0 140 78 236q74 91 196 128q-43 51 -105 79q-64 28 -136 28q-68 0 -131 -22q-66 -21 -121 -60q-54 -40 -85 -93q-31 -56 -31 -117zM737 1838q8 39 26 63q18 21 36 21 q26 0 26 -33l-2 -5v-5l5 -218q0 -50 -37 -50q-19 0 -33 19q-15 18 -19 53zM999 1078q41 8 87 8q163 0 283 -99q120 -100 128 -282q46 63 97 91q51 30 106 30q15 0 37 -4q-20 134 -66 235q-49 102 -110 163q-65 64 -136 96q-74 29 -143 29q-119 0 -200 -72q-83 -74 -83 -195z M1160 1486q0 22 25 40l173 116q15 11 32 11q38 0 38 -35q0 -31 -45 -62l-104 -72q-47 -27 -80 -27q-39 0 -39 29z" />
<glyph unicode="e" d="M15 606q0 83 65 173q62 88 161 141q-19 61 -19 124q0 90 44 165q43 72 113 123q72 49 154 74q79 25 159 25q71 0 121 -20q50 -21 70 -58q24 111 121 179q94 68 227 68q92 0 183 -37q92 -40 171 -118q80 -83 138 -207q57 -126 78 -297q86 -52 144 -142q59 -94 59 -181 q0 -58 -30 -103q-29 -45 -91 -70q-121 -9 -288 -10q-91 -2 -194 -3t-218 -1q-90 0 -175 0.5t-164 1.5q-63 0 -144.5 1.5t-182.5 2.5q-76 0 -140 1.5t-116 2.5q-47 0 -82.5 1.5t-59.5 2.5q-53 28 -78 72q-26 41 -26 89zM144 626q0 -69 93 -105h27q25 -2 78 -2h121.5t172.5 2 q215 0 349.5 1t189.5 1q95 0 187 -1t182 -1q81 -2 147 -3.5t118 -4.5q46 19 70 52q22 36 22 74q0 42 -20 86q-21 39 -56 78q-40 35 -82 56q-49 22 -94 22q-53 0 -105 -31q-51 -31 -95 -98q-52 180 -169 276q-120 98 -253 98q-150 0 -253 -117q-105 -119 -105 -335 q-20 86 -74 131q-55 41 -130 41q-53 0 -111 -20q-59 -20 -105 -52q-49 -33 -76 -72q-29 -40 -29 -76zM299 1040q0 -41 16 -87q55 17 105 17q62 0 119 -27q51 -26 97 -82q0 140 78 235q75 92 196 129q-41 50 -105 80q-65 27 -136 27q-68 0 -132 -22q-68 -22 -121 -60 q-56 -42 -85 -93q-32 -57 -32 -117zM957 1236q41 8 87 8q163 0 285 -99q120 -100 128 -282q44 61 97 92q50 28 107 28q20 0 37 -3q-20 134 -66 235q-47 99 -111 164q-66 64 -136 95q-74 29 -144 29q-119 0 -200 -72q-84 -74 -84 -195z" />
<glyph unicode="f" horiz-adv-x="2137" d="M49 1059q0 44 79 59l153 2q43 -7 67 -24q24 -18 24 -37q0 -17 -19 -26q-18 -9 -59 -9l-168 -2q-37 0 -57 11q-20 9 -20 26zM191 672q0 46 26 90q25 49 68 89q40 38 98 70q53 26 110 39q-26 47 -26 114q0 83 46 166q45 81 139 129q34 18 77 18q50 0 50 -24q0 -25 -79 -61 q-76 -31 -107 -90q-33 -62 -33 -136q0 -52 12 -109q62 -3 117 -35q50 -32 88 -94q0 2 -2 26v24q0 87 33 158q30 66 89 116q56 45 127 70q66 22 142 22h22q10 -1 22 -1q-42 88 -124 145q-82 55 -195 55q-136 0 -287 -86q-42 -17 -63 -17q-20 0 -20 15q0 29 72 100 q135 73 278 73q156 0 269 -83q114 -83 144 -217q92 -26 153 -91q58 -65 70 -164q89 80 190 80q64 0 127 -32q62 -33 110 -82q46 -53 76 -116q26 -65 26 -120q0 -56 -28 -104q-31 -47 -90 -70q-52 -3 -123 -6t-161 -3q-182 -3 -395 -3h-166.5t-138.5 1q-72 0 -148 1t-155 3 q-89 0 -148.5 1.5t-90.5 2.5q-87 1 -111 3q-90 51 -90 133zM270 1704q0 37 35 37q29 0 63 -35l131 -124q27 -26 27 -53q0 -35 -40 -35q-34 0 -78 31l-118 128q-20 27 -20 51zM300 698q0 -65 83 -105q5 0 97 4h103.5t165.5 1q102 1 183.5 2t144.5 2q35 0 90.5 1.5t130.5 2.5 l48 2q170 1 273 7q108 2 199 11q65 15 96 46t31 74q0 38 -20 74q-25 39 -61 70q-39 30 -88 49t-103 19q-110 0 -205 -79q-27 129 -116 208q-89 75 -197 75q-66 0 -128 -29q-60 -30 -108 -92q-49 -65 -77 -159q-30 -98 -30 -223q-26 118 -90 174q-69 55 -153 55 q-47 0 -96 -17q-50 -17 -89 -44q-42 -31 -62 -63q-22 -33 -22 -66zM460 58q0 25 26 58l37 35q51 77 70 77q7 0 7 -13q0 -26 -24 -90l-2 -50q-10 -28 -27 -41q-22 -14 -43 -14q-44 0 -44 38zM777 248q0 23 26 56l37 35q51 79 70 79q7 0 7 -13q0 -26 -24 -90l-4 -48 q-6 -27 -27 -43q-20 -14 -43 -14q-42 0 -42 38zM823 1831q9 45 28 69q18 22 38 22q28 0 28 -35l-2 -6v-5l6 -235q0 -53 -41 -53q-20 0 -35 20q-18 21 -20 57zM1013 62q0 26 26 57l35 35q51 78 70 78q7 0 7 -13q0 -25 -24 -89l-2 -50q-9 -27 -27 -40q-21 -15 -43 -15 q-42 0 -42 37zM1278 1453q0 25 28 43l186 125q15 11 35 11q41 0 41 -37q0 -33 -48 -66l-113 -77q-50 -30 -86 -30q-43 0 -43 31z" />
<glyph unicode="g" horiz-adv-x="2122" d="M29 1069q0 43 80 59l153 2q41 -5 66 -24q24 -18 24 -37q0 -17 -18 -26t-59 -9l-168 -2q-38 0 -58 11q-20 9 -20 26zM171 681q0 43 26 91q22 44 69 89q40 38 98 70q55 27 111 39q-26 44 -26 114q0 85 46 166q42 80 138 130q36 18 78 18q50 0 50 -24q0 -26 -79 -61 q-77 -32 -108 -90q-33 -62 -33 -137q0 -55 13 -109q64 -5 117 -35q51 -32 88 -94q0 13 -2 25v24q0 89 34 159q31 69 88 117q58 46 128 70q66 22 142 22h22q20 -2 22 -2q-43 89 -124 146q-84 56 -195 56q-135 0 -288 -87q-44 -17 -63 -17q-21 0 -21 15q0 29 72 100 q138 74 279 74q155 0 270 -83q115 -84 144 -219q92 -26 154 -90q59 -66 70 -165q89 80 190 80q68 0 128 -32q57 -29 111 -83q46 -51 76 -116q25 -62 25 -120t-27 -104q-32 -47 -91 -70q-104 -8 -284 -9q-91 -2 -190 -3t-206 -1q-91 0 -167.5 0.5t-139.5 1.5q-162 0 -303 4 q-190 1 -240 4q-87 1 -111 3q-91 50 -91 133zM221 10l263 429h70l-268 -427zM251 1716q0 37 35 37q29 0 63 -35l131 -124q28 -27 28 -53q0 -36 -41 -36q-33 0 -77 32l-119 127q-20 29 -20 52zM280 707q0 -65 84 -105q19 1 98 3q36 0 103.5 0.5t166.5 1.5q101 1 183 2t145 2 q35 0 90.5 1.5t131.5 2.5l48 2q170 1 274 7q109 2 199 11q65 15 96 46q32 32 32 74q0 36 -21 74q-19 33 -60 70q-40 32 -89 50q-50 19 -104 19q-110 0 -205 -80q-27 130 -116 209q-90 76 -198 76q-67 0 -128 -30q-64 -32 -108 -92q-48 -60 -78 -159q-30 -98 -30 -224 q-26 118 -90 174q-67 55 -154 55q-50 0 -96 -16q-51 -17 -88 -44q-42 -30 -63 -63q-23 -36 -23 -67zM428 5l263 429h70l-268 -427zM652 5l262 429h70l-267 -427zM805 1844q10 45 28 68q17 22 39 22q28 0 28 -35l-2 -5v-6l5 -235q0 -53 -40 -53q-23 0 -35 20q-17 19 -21 57z M887 0l262 428h70l-267 -427zM1121 0l263 428h70l-268 -427zM1262 1465q0 24 27 42l187 126q17 11 35 11q41 0 41 -37q0 -33 -48 -66l-113 -78q-50 -30 -87 -30q-42 0 -42 32zM1373 0l262 428h70l-268 -427z" />
<glyph unicode="h" horiz-adv-x="2111" d="M23 757q0 83 64 173q64 87 161 140q-19 61 -19 124q0 91 45 165q41 73 112 123q72 49 154 74q80 25 160 25q68 0 120 -19q50 -21 70 -59q24 111 121 179q97 69 227 69q88 0 183 -37q89 -39 172 -119q79 -80 138 -206q56 -130 77 -298q85 -50 144 -142q59 -94 59 -181 q0 -58 -29 -103q-30 -45 -92 -70q-96 -7 -288 -10q-90 -2 -193.5 -3t-218.5 -1q-90 0 -174.5 0.5t-164.5 1.5q-63 1 -144.5 2t-182.5 2q-76 1 -140 2t-116 2q-46 0 -81.5 1.5t-60.5 2.5q-53 30 -78 72q-25 39 -25 90zM151 776q0 -68 93 -105h28q48 -2 77 -2q48 0 121.5 0.5 t172.5 1.5q215 0 349.5 1t189.5 1q95 0 187.5 -1t182.5 -1q152 -2 264 -8q47 19 70 53q22 32 22 74q0 41 -20 85q-19 37 -56 78q-40 35 -82 56q-46 22 -93 22q-54 0 -105 -31q-54 -32 -96 -97q-50 177 -169 276q-120 97 -253 97q-150 0 -253 -117q-105 -119 -105 -334 q-20 89 -74 130q-55 41 -130 41q-53 0 -111 -20q-58 -21 -105 -52q-50 -35 -76 -72q-29 -40 -29 -76zM307 1190q0 -42 15 -87q57 17 105 17q62 0 119 -27q56 -29 97 -82q0 140 78 236q77 94 197 128q-45 53 -106 80q-63 27 -136 27q-66 0 -132 -21q-63 -20 -121 -61 q-54 -40 -85 -93q-31 -54 -31 -117zM423 58q0 25 28 60l38 37q55 82 74 82q8 0 8 -14q0 -29 -25 -95l-2 -52q-9 -29 -29 -43q-23 -16 -45 -16q-47 0 -47 41zM758 258q0 26 27 59l39 37q54 83 74 83q8 0 8 -13q0 -25 -25 -96l-4 -50q-8 -29 -30 -45q-21 -15 -44 -15 q-45 0 -45 40zM964 1387q43 7 88 7q164 0 284 -99q120 -100 128 -282q44 61 97 92q51 29 107 29q22 0 37 -4q-20 134 -66 235q-46 98 -111 164q-64 63 -136 95q-70 29 -144 29q-119 0 -200 -72q-84 -74 -84 -194zM1007 62q0 27 27 60l37 37q53 82 74 82q8 0 8 -14 q0 -25 -26 -93l-1 -52q-11 -30 -30 -43q-21 -16 -44 -16q-45 0 -45 39z" />
<glyph unicode="i" horiz-adv-x="2116" d="M28 762q0 85 64 173q64 87 161 140q-19 62 -19 125q0 91 45 165q42 73 113 122q70 50 153 74q84 26 160 26q66 0 120 -20q50 -21 70 -58q23 110 121 179q98 68 228 68q91 0 182 -37q92 -40 172 -119q79 -80 138 -206q55 -127 78 -298q84 -50 143 -141q59 -96 59 -181 q0 -59 -29 -103q-31 -47 -92 -71q-105 -8 -288 -9q-90 -3 -193.5 -3.5t-218.5 -0.5q-90 0 -174.5 0.5t-164.5 1.5q-62 0 -143.5 1t-182.5 3q-77 0 -141 1t-116 3q-94 1 -142 3q-53 30 -78 73q-25 39 -25 89zM152 42l276 452h74l-282 -450zM156 782q0 -69 93 -106h28 q48 -2 78 -2q47 0 120.5 0.5t172.5 1.5q215 1 350 1.5t189 0.5q95 0 187.5 -0.5t182.5 -1.5q172 -2 264 -7q48 20 70 52t22 74q0 41 -20 86q-21 40 -56 77q-35 33 -82 57q-47 21 -93 21q-57 0 -105 -31q-54 -32 -96 -97q-50 177 -169 276q-118 97 -253 97q-150 0 -253 -117 q-105 -119 -105 -334q-20 88 -74 131q-54 40 -130 40q-56 0 -111 -19q-54 -19 -105 -53q-50 -35 -76 -72q-29 -40 -29 -75zM312 1196q0 -43 15 -88q55 18 105 18q63 0 119 -28q55 -28 97 -81q0 139 78 235q76 93 197 129q-43 51 -105 79q-65 27 -137 27q-66 0 -132 -21 t-121 -60q-52 -39 -85 -94q-31 -54 -31 -116zM370 36l276 452h74l-282 -450zM606 36l276 452h74l-282 -450zM853 31l276 451h74l-282 -450zM969 1392q49 8 88 8q162 0 284 -99q120 -100 128 -282q46 63 98 91q50 29 106 29q22 0 37 -4q-20 133 -66 236q-47 98 -111 163 q-63 63 -136 96q-74 29 -144 29q-119 0 -200 -72q-84 -75 -84 -195zM1100 31l276 451h74l-282 -450zM1364 31l276 451h74l-282 -450z" />
<glyph unicode="j" d="M15 649q0 85 65 173q31 44 83 84.5t101 67.5q25 13 63 23q56 16 93 16q62 0 119 -27q53 -27 97 -82q0 140 78 236q78 94 214 134q25 6 52 9q33 4 64 4q163 0 285 -99q114 -95 137 -282q50 70 88 91q44 26 117 28q60 0 111 -32q42 -25 87.5 -65.5t75.5 -85.5 q59 -94 59 -181q0 -58 -30 -103q-29 -45 -91 -70q-121 -9 -288 -10q-91 -2 -194 -3t-218 -1q-90 0 -175 0.5t-164 1.5q-63 1 -144.5 2t-182.5 2q-76 0 -140 1.5t-116 2.5q-47 0 -82.5 1.5t-59.5 2.5q-53 28 -78 72q-26 41 -26 89zM144 669q0 -69 93 -105h27q50 -2 78 -2 q48 0 121.5 0.5t172.5 1.5q215 0 349.5 1t189.5 1q95 0 187 -1t182 -1q151 -2 265 -8q44 18 70 52q22 36 22 74q0 42 -20 86q-21 39 -56 78q-40 35 -82 56q-46 22 -94 22q-53 0 -105 -31q-51 -31 -95 -98q-52 180 -169 276q-120 98 -253 98q-150 0 -253 -117 q-105 -119 -105 -335q-20 86 -74 131q-55 41 -130 41q-53 0 -111 -20q-59 -20 -105 -52q-49 -33 -76 -72q-29 -40 -29 -76zM1067 176q0 27 27 60l39 37q54 82 74 82q8 0 8 -14q0 -27 -26 -95l-1 -53q-11 -30 -30 -43q-21 -15 -44 -15q-47 0 -47 41z" />
<glyph unicode="k" d="M15 536q0 84 65 173q31 43 83 83.5t101 67.5q23 12 63 24q58 15 93 15q62 0 119 -27q53 -27 97 -82q0 140 78 236q78 94 214 134q25 6 52 9q41 5 64 5q162 0 285 -100q114 -95 137 -282q50 70 88 92q44 25 117 27h6q53 0 105 -31q42 -26 87.5 -66.5t75.5 -85.5 q59 -94 59 -181q0 -58 -30 -103q-29 -45 -91 -70q-96 -7 -288 -10q-91 -2 -194 -3t-218 -1q-90 0 -175 0.5t-164 1.5q-63 1 -144.5 2t-182.5 2q-76 0 -140 1.5t-116 2.5q-47 0 -82.5 1.5t-59.5 2.5q-53 28 -78 72q-26 41 -26 90zM144 555q0 -68 93 -105h27q50 -2 78 -2 q48 0 121.5 0.5t172.5 1.5q215 0 349.5 1t189.5 1q95 0 187 -1t182 -1q151 -2 265 -8q46 19 70 53q22 34 22 74q0 41 -20 85q-21 39 -56 78q-40 35 -82 56q-46 22 -94 22q-53 0 -105 -31q-51 -31 -95 -98q-51 179 -169 277q-120 97 -253 97q-150 0 -253 -117 q-105 -119 -105 -334q-20 85 -74 130q-55 41 -130 41q-53 0 -111 -20q-59 -20 -105 -52q-49 -33 -76 -72q-29 -40 -29 -76z" />
<glyph unicode="l" horiz-adv-x="2121" d="M28 1069q0 44 80 59l153 2q43 -7 66 -24q24 -18 24 -37q0 -17 -18 -26t-59 -9l-168 -2q-38 0 -58 11q-20 9 -20 26zM170 681q0 43 26 91q22 44 69 89q40 38 98 70q55 26 110 39q-25 45 -25 114q0 85 46 166q42 80 138 130q36 18 78 18q50 0 50 -24q0 -26 -79 -61 q-77 -32 -108 -91q-33 -60 -33 -136q0 -55 13 -109q65 -5 116 -35q52 -32 89 -95q0 14 -2 26v24q0 89 34 159q31 69 88 117q58 46 128 70q66 22 142 22h22q20 -2 22 -2q-43 89 -124 146q-84 56 -195 56q-135 0 -289 -87q-42 -17 -62 -17q-21 0 -21 15q0 29 72 100 q138 74 279 74q155 0 270 -83q114 -84 144 -219q92 -26 154 -90q59 -66 70 -165q89 80 190 80q65 0 128 -32q57 -29 111 -83q46 -51 76 -116q25 -62 25 -120t-27 -104q-32 -47 -91 -70q-104 -8 -284 -9q-162 -4 -396 -4q-91 0 -167.5 0.5t-139.5 1.5q-162 0 -303 4 q-177 1 -240 3q-105 3 -111 4q-91 49 -91 133zM250 1716q0 37 35 37q29 0 63 -35l131 -124q28 -27 28 -53q0 -36 -41 -36q-33 0 -77 32l-119 127q-20 29 -20 52zM279 707q0 -65 84 -105q19 1 98 3q36 0 103.5 0.5t165.5 1.5q102 0 184 1.5t145 3.5q35 0 90.5 0.5t131.5 2.5 l48 1q79 1 147.5 3t126.5 5q109 2 199 11q65 15 96 46q32 32 32 74q0 36 -21 74q-19 33 -60 70q-40 32 -89 50q-50 19 -104 19q-110 0 -205 -80q-27 130 -116 209q-92 76 -198 76q-67 0 -128 -30q-64 -32 -108 -92q-48 -60 -78 -159q-30 -98 -30 -224q-26 118 -90 174 q-67 55 -154 55q-50 0 -96 -16q-52 -18 -88 -45q-42 -29 -63 -62q-23 -36 -23 -67zM671 73l87 59l-87 72l19 21l88 -67v106h34v-104l100 54l16 -24l-96 -58l87 -70l-18 -24l-89 66v-104h-34v104l-90 -53zM804 1844q10 45 28 68q17 22 39 22q28 0 28 -35l-2 -5v-6l5 -235 q0 -53 -40 -53q-23 0 -35 20q-17 19 -21 57zM1046 232l89 61l-89 70l21 22l88 -68v107h34v-105l98 54l18 -23l-96 -57l87 -70l-19 -26l-88 67v-106h-34v106l-90 -54zM1261 1465q0 24 27 42l187 126q17 11 35 11q41 0 41 -37q0 -33 -48 -66l-113 -78q-50 -30 -87 -30 q-42 0 -42 32z" />
<glyph unicode="m" horiz-adv-x="2117" d="M30 1056q0 45 80 59l153 2q44 -7 66 -24q24 -18 24 -37q0 -17 -19 -25q-18 -10 -59 -10l-167 -2q-39 0 -57 12q-21 9 -21 25zM172 669q0 43 26 91q22 44 68 88q47 43 98 70q55 28 111 39q-26 46 -26 114q0 85 46 166q43 81 138 129q34 18 77 18q50 0 50 -24 q0 -26 -79 -60q-76 -32 -107 -91q-33 -60 -33 -136q0 -55 13 -109q60 -3 116 -35q52 -33 88 -94q0 14 -1 26v24q0 89 33 158q31 69 88 117q58 46 127 70q72 22 142 22h22q20 -2 22 -2q-42 86 -123 146q-85 55 -195 55q-135 0 -288 -87q-40 -16 -63 -16q-20 0 -20 14 q0 29 72 100q137 74 278 74q154 0 269 -83q114 -85 144 -218q91 -26 153 -90q59 -66 70 -164q87 79 190 79q67 0 127 -31q60 -32 111 -83q48 -55 75 -116q26 -65 26 -120q0 -58 -28 -103q-29 -46 -90 -70q-104 -8 -284 -9q-90 -3 -189 -3.5t-205 -0.5h-167.5t-138.5 2 q-145 0 -302 3q-89 1 -149 2t-91 2q-44 0 -71 1.5t-39 2.5q-91 49 -91 132zM251 1701q0 37 36 37q29 0 62 -35l131 -123q28 -27 28 -54q0 -35 -41 -35q-33 0 -77 32l-118 127q-21 27 -21 51zM281 695q0 -65 83 -105q36 2 98 4q36 0 103 0.5t166 1.5q201 1 328 3q53 2 221 4 l48 2q78 0 146.5 2t126.5 5q134 5 199 11q63 14 95 46t32 74q0 36 -21 74q-19 33 -60 70q-37 29 -89 50q-50 18 -103 18q-112 0 -205 -79q-27 129 -116 208q-90 76 -197 76q-67 0 -127 -30q-62 -31 -109 -92q-47 -62 -77 -158q-30 -99 -30 -223q-26 117 -90 173 q-66 55 -153 55q-50 0 -96 -16q-53 -20 -88 -45q-40 -29 -63 -62q-22 -33 -22 -67zM349 91l87 59l-87 72l19 20l88 -66v105h33v-104l100 54l16 -24l-95 -57l86 -70l-18 -24l-89 66v-105h-33v105l-90 -53zM723 249l89 61l-89 70l21 22l88 -68v107h33v-105l98 53l18 -22 l-95 -57l86 -70l-18 -26l-89 67v-105h-33v105l-90 -54zM804 1829q10 45 28 68q17 22 39 22q27 0 27 -35l-1 -6v-5l5 -234q0 -54 -40 -54q-22 0 -35 21q-17 19 -21 57zM1053 34l87 59l-87 71l19 21l88 -67v105h33v-103l100 54l16 -24l-96 -57l87 -70l-18 -23l-89 65v-104h-33 v104l-90 -54zM1260 1451q0 24 27 42l186 126q17 11 35 11q41 0 41 -37q0 -34 -48 -67l-112 -77q-51 -30 -87 -30q-42 0 -42 32zM1427 192l89 61l-89 70l21 22l88 -68v107h33v-105l98 53l18 -22l-96 -57l87 -70l-18 -26l-89 66v-105h-33v105l-90 -53z" />
<glyph unicode="n" horiz-adv-x="2119" d="M31 633q0 83 64 173q31 43 83 83.5t102 67.5q20 11 63 24q58 15 92 15q62 0 119 -27q55 -28 97 -81q0 139 78 235q80 96 215 134q20 6 51 10q33 4 65 4q163 0 284 -100q113 -94 138 -282q47 68 87 92q44 25 117 27h7q54 0 104 -31q42 -25 88 -66t75 -86q59 -92 59 -181 q0 -58 -29 -103q-30 -45 -92 -70q-96 -7 -288 -10q-180 -3 -412 -3h-174.5t-164.5 2q-125 1 -327 3q-76 1 -140 2t-116 2q-46 1 -82 2t-60 2q-53 30 -78 72q-25 39 -25 90zM159 652q0 -68 93 -105h28q48 -2 77 -2q48 0 121.5 0.5t172.5 1.5q215 0 349.5 1t189.5 1 q95 0 187.5 -1t182.5 -1q152 -2 264 -8q47 19 70 53q22 32 22 74q0 41 -20 85q-19 37 -56 78q-35 33 -82 57q-47 21 -93 21q-57 0 -105 -31q-54 -32 -96 -97q-50 177 -169 276q-120 97 -253 97q-150 0 -253 -117q-105 -119 -105 -334q-20 89 -74 130q-55 41 -130 41 q-51 0 -111 -19q-59 -23 -105 -53q-50 -35 -76 -72q-29 -40 -29 -76zM1071 154l94 65l-94 74l22 23l93 -72v113h35v-111l103 56l20 -23l-101 -60l91 -74l-19 -27l-94 70v-111h-35v111l-95 -57z" />
<glyph unicode="o" horiz-adv-x="2103" d="M15 748q0 83 64 173q65 88 161 140q-19 61 -19 124q0 91 45 165q41 73 112 123q72 49 154 74q80 25 160 25q68 0 120 -19q50 -21 70 -59q24 111 121 179q97 69 227 69q88 0 183 -37q89 -39 172 -119q79 -80 138 -206q56 -130 77 -298q85 -50 144 -142q59 -94 59 -181 q0 -58 -29 -103q-30 -45 -92 -70q-96 -7 -288 -10q-90 -2 -193.5 -3t-218.5 -1q-90 0 -174.5 0.5t-164.5 1.5q-63 1 -144.5 2t-181.5 2q-77 1 -141 2t-116 2q-46 0 -82 1.5l-60 2.5q-53 30 -78 72q-25 39 -25 90zM143 767q0 -68 93 -105h28q48 -2 77 -2q48 0 121.5 0.5 t172.5 1.5q215 0 349.5 1t189.5 1q95 0 187.5 -1t182.5 -1q150 -2 264 -8q47 19 70 53q22 32 22 74q0 41 -20 85q-19 37 -56 78q-40 35 -82 56q-46 22 -93 22q-54 0 -105 -31q-54 -32 -96 -97q-50 177 -169 276q-120 97 -253 97q-150 0 -253 -117q-105 -119 -105 -334 q-20 89 -74 130q-55 41 -130 41q-53 0 -111 -20q-59 -20 -105 -52q-50 -35 -76 -72q-29 -40 -29 -76zM299 1181q0 -42 15 -87q55 17 105 17q62 0 119 -27q56 -29 97 -82q0 140 78 236q77 94 197 128q-45 53 -106 80q-63 27 -136 27q-66 0 -132 -21q-67 -23 -121 -61 q-56 -42 -85 -93q-31 -54 -31 -117zM602 92l92 62l-92 76l20 21l93 -70v111h35v-109l105 57l18 -26l-102 -60l92 -74l-20 -25l-93 70v-111h-35v111l-95 -56zM956 1378q43 7 88 7q162 0 284 -99q120 -100 128 -282q44 61 97 92q51 29 107 29q22 0 37 -4q-20 134 -66 235 q-46 98 -111 164q-64 63 -136 95q-70 29 -144 29q-119 0 -200 -72q-84 -74 -84 -194zM997 259l93 64l-93 74l21 24l94 -72v113h35v-111l103 56l19 -23l-101 -61l92 -74l-20 -27l-93 70v-111h-35v111l-96 -56z" />
<glyph unicode="p" horiz-adv-x="2091" d="M4 771q0 83 64 173q65 87 162 140q-19 62 -19 125q0 93 44 165q44 74 113 123q72 49 154 74q84 25 159 25q67 0 121 -20q50 -21 70 -58q24 111 120 179q98 68 228 68q92 0 183 -37q92 -40 171 -118q80 -83 138 -207q57 -126 78 -297q86 -52 144 -142q58 -93 58 -181 q0 -60 -29 -103q-30 -46 -91 -70q-121 -9 -288 -10q-162 -4 -413 -4q-90 0 -174.5 0.5t-163.5 1.5q-63 0 -144.5 1.5t-182.5 2.5q-76 0 -140.5 1.5t-116.5 2.5q-103 1 -142 4q-53 28 -78 72q-25 42 -25 89zM133 791q0 -69 93 -106h27q25 -1 78 -1h121.5t172.5 1q430 3 539 3 q190 0 369 -3q171 -2 265 -7q46 19 70 52q21 33 21 74q0 43 -19 86q-21 39 -56 78q-38 34 -82 56q-47 21 -94 21q-55 0 -105 -31q-52 -31 -95 -97q-52 179 -169 276q-120 97 -253 97q-151 0 -253 -116q-105 -119 -105 -335q-20 86 -74 131q-54 40 -130 40q-57 0 -111 -19 q-60 -21 -105 -53q-50 -34 -76 -71q-29 -40 -29 -76zM208 129l92 62l-92 76l20 22l93 -70v111h35v-109l105 56l18 -25l-101 -61l91 -74l-19 -25l-94 70v-111h-35v111l-95 -56zM288 1205q0 -45 16 -88q54 18 105 18q62 0 119 -27q53 -29 97 -82q0 140 78 235q74 92 196 129 q-42 51 -105 79q-64 28 -136 28q-68 0 -132 -22q-67 -21 -121 -60q-55 -42 -86 -93q-31 -58 -31 -117zM604 296l93 65l-93 74l21 23l93 -72v113h35v-111l103 56l20 -23l-101 -60l91 -74l-19 -28l-94 71v-111h-35v111l-95 -57zM946 1401q41 8 87 8q164 0 284 -99 q121 -99 129 -282q46 63 97 91q49 29 107 29q21 0 37 -4q-20 135 -66 236q-48 100 -111 163q-65 64 -136 96q-74 29 -144 29q-119 0 -201 -72q-83 -74 -83 -195zM952 69l91 62l-91 76l19 21l93 -70v111h35v-109l105 57l18 -26l-101 -60l91 -74l-19 -25l-94 70v-110h-35v110 l-95 -57zM1347 236l93 64l-93 74l21 24l93 -72v112h35v-111l103 57l20 -23l-101 -61l91 -74l-19 -27l-94 70v-111h-35v111l-95 -56z" />
<glyph unicode="q" horiz-adv-x="2126" d="M39 1090q0 44 79 59l153 2q42 -6 66 -24q24 -20 24 -37t-18 -26q-20 -9 -59 -9l-168 -2q-39 0 -57 11q-20 8 -20 26zM180 703q0 42 26 90q22 43 68 89q43 40 98 70q57 27 111 38q-26 48 -26 114q0 85 46 166q42 79 138 129q35 19 78 19q49 0 49 -24q0 -27 -79 -61 q-76 -32 -107 -90q-33 -62 -33 -137q0 -54 13 -108q60 -5 116 -35q52 -33 89 -94l-2 26v24q0 87 33 158q32 69 88 116q55 45 127 70q67 22 142 22h22q20 -2 23 -2q-45 89 -124 146q-82 55 -195 55q-135 0 -288 -86q-39 -17 -62 -17q-21 0 -21 15q0 30 72 99q137 74 279 74 q153 0 268 -83t144 -217q93 -28 153 -91q59 -65 70 -164q87 79 190 79q67 0 127 -31q63 -33 111 -83q47 -53 75 -116q26 -61 26 -120q0 -57 -27 -103q-30 -47 -91 -70q-104 -8 -284 -9q-160 -4 -394 -4q-90 0 -166.5 0.5t-139.5 1.5q-161 0 -302 4q-177 1 -240 3 q-105 3 -110 4q-91 50 -91 133zM260 1735q0 37 35 37q28 0 62 -35l131 -124q28 -26 28 -53q0 -35 -41 -35q-35 0 -77 31l-118 127q-20 27 -20 52zM267 120q0 25 26 58l37 35q51 77 70 77q7 0 7 -13q0 -26 -24 -90l-2 -50q-10 -28 -27 -41q-22 -14 -43 -14q-44 0 -44 38z M289 729q0 -65 83 -105q21 1 98 3q36 0 103.5 0.5t165.5 1.5q101 0 183 1.5t145 2.5q34 0 89.5 1t131.5 3l48 1q79 1 147.5 3t125.5 5q106 2 199 11q65 15 96 46t31 74q0 36 -20 73q-23 37 -61 70q-41 33 -89 50q-50 18 -103 18q-112 0 -204 -79q-29 131 -117 208 q-88 76 -197 76q-66 0 -127 -30q-61 -29 -109 -92t-77 -158t-29 -223q-27 117 -91 173q-67 56 -153 56q-47 0 -96 -17q-48 -16 -88 -44q-41 -30 -63 -63q-22 -35 -22 -66zM584 310q0 23 26 56l37 35q51 79 70 79q7 0 7 -13q0 -26 -24 -90l-3 -48q-8 -27 -28 -43 q-20 -14 -43 -14q-42 0 -42 38zM813 1862q8 43 27 68q19 22 39 22q28 0 28 -35l-2 -5v-6l5 -234q0 -53 -40 -53q-21 0 -35 20q-17 21 -21 57zM820 124q0 24 26 57l35 35q51 78 70 78q7 0 7 -13q0 -25 -24 -89l-2 -49q-9 -28 -27 -41q-21 -15 -43 -15q-42 0 -42 37zM1190 43 l87 59l-87 72l19 20l88 -66v105h33v-103l100 53l17 -24l-96 -57l86 -70l-18 -24l-89 66v-104h-33v104l-90 -53zM1268 1484q0 23 27 43l187 125q17 11 35 11q40 0 40 -37q0 -33 -48 -66l-112 -78q-51 -29 -87 -29q-42 0 -42 31zM1461 275l89 61l-89 70l21 22l88 -68v107h33 v-105l98 53l18 -22l-96 -57l87 -70l-18 -26l-89 67v-105h-33v105l-90 -54z" />
<glyph unicode="r" horiz-adv-x="2118" d="M30 824q0 84 64 172q62 86 161 140q-19 62 -19 125q0 91 45 165q41 74 113 123q69 48 153 74q80 25 160 25q68 0 120 -19q52 -24 70 -59q24 111 121 179q96 68 228 68q90 0 182 -36q89 -39 172 -119q79 -80 138 -206q55 -128 78 -298q86 -52 144 -142q58 -95 58 -181 q0 -58 -29 -103q-30 -45 -92 -70q-96 -7 -288 -10q-90 -2 -193.5 -3t-218.5 -1q-90 0 -174.5 0.5t-163.5 1.5q-63 1 -144.5 2t-182.5 2q-77 1 -141 2t-116 2q-46 0 -81.5 1.5t-60.5 2.5q-52 27 -78 72q-25 39 -25 90zM158 843q0 -69 93 -105h28q50 -2 78 -2q47 0 120.5 0.5 t172.5 1.5q215 0 350 1t189 1q95 0 187.5 -1t182.5 -1q152 -2 264 -8q47 19 70 53q22 32 22 73q0 42 -20 86q-21 39 -56 78q-40 35 -82 56q-46 22 -93 22q-54 0 -105 -32q-53 -30 -95 -97q-51 179 -170 276q-120 98 -253 98q-150 0 -253 -117q-105 -119 -105 -335 q-18 86 -74 131q-55 41 -130 41q-53 0 -111 -20q-58 -21 -105 -52q-50 -35 -76 -72q-29 -40 -29 -76zM168 170q0 27 27 60l39 37q53 82 74 82q8 0 8 -14q0 -27 -26 -95l-1 -53q-11 -28 -30 -43q-21 -15 -44 -15q-47 0 -47 41zM314 1257q0 -42 15 -87q57 17 105 17 q62 0 119 -27q56 -29 97 -82q0 140 78 236q77 94 197 128q-45 53 -105 80q-65 27 -137 27q-66 0 -132 -21q-67 -23 -121 -61q-54 -40 -85 -93q-31 -54 -31 -117zM503 370q0 26 27 58l39 38q54 83 74 83q7 0 7 -13q0 -29 -25 -96l-4 -50q-8 -30 -29 -45q-21 -16 -45 -16 q-44 0 -44 41zM752 174q0 27 27 60l37 37q54 82 74 82q7 0 7 -14q0 -27 -25 -93l-2 -53q-10 -30 -29 -43q-21 -15 -45 -15q-44 0 -44 39zM971 1454q43 7 88 7q162 0 284 -99q120 -100 128 -282q44 61 98 91q49 30 106 30q22 0 38 -4q-23 141 -67 235q-47 99 -111 164 q-64 63 -136 95q-74 29 -144 29q-119 0 -200 -72q-84 -74 -84 -194zM1148 32l92 62l-92 76l20 21l93 -70v111h35v-109l105 56l18 -25l-102 -60l92 -74l-19 -24l-94 69v-110h-35v110l-95 -57zM1428 333l94 64l-94 74l22 24l93 -72v113h35v-111l103 56l20 -23l-101 -61l91 -74 l-19 -27l-94 70v-111h-35v111l-95 -56z" />
<glyph unicode="s" horiz-adv-x="2252" d="M11 1016v12h2117v40h13v-52h-2130zM11 1145v12h2117v40h13v-52h-2130zM15 628v12h2117v39h13v-51h-2130zM15 770v12h2117v39h13v-51h-2130zM15 896v11h2117v40h13v-51h-2130zM18 -8l424 626h157l133 -269l101 267l68 -1l-161 -401l-216 398l-435 -613zM192 1464q0 9 9 18 q9 7 25 9l89 4q21 -4 32 -10q11 -7 11 -17q0 -23 -46 -24l-98 2q-22 0 -22 18zM285 1221q0 14 16 29l78 71q13 11 29 11q21 0 21 -18q0 -17 -18 -36l-76 -67q-14 -7 -28 -7q-22 0 -22 17zM311 1784q0 16 18 16q14 0 32 -14l60 -53q15 -18 15 -34q0 -17 -16 -17q-17 0 -41 21 l-52 50q-16 17 -16 31zM412 1477q0 41 22 81q21 37 67 60q17 7 26 7q19 0 19 -13q0 -12 -25 -26q-33 -19 -51 -49q-17 -31 -17 -67q0 -32 13 -60q9 -29 32 -56q19 -23 51 -39q31 -15 67 -15q58 0 123 42q26 24 42 63q13 33 13 73q0 33 -11 68q-13 32 -35 58q-23 25 -55 41 q-35 14 -73 14q-68 0 -144 -42q-23 -8 -32 -8q-12 0 -12 9q0 10 19 36q77 43 151 43q48 0 95 -20q42 -20 75 -53q29 -32 49 -76q17 -44 17 -85q0 -46 -21 -86q-22 -41 -63 -67q-68 -42 -134 -42q-45 0 -82 18q-38 15 -67 47q-29 33 -43 69q-16 40 -16 75zM588 1843 q5 41 30 41q22 0 25 -39l-3 -74q-2 -20 -8 -31q-8 -12 -17 -12q-23 0 -24 44zM598 1202q-2 41 30 41q26 0 25 -39l-2 -42h-52zM813 1275q0 16 17 16t40 -18l64 -61q20 -19 20 -32q0 -15 -17 -15q-19 0 -40 20l-65 57q-19 17 -19 33zM820 1659q0 16 25 39l70 43q16 7 32 7 q21 0 21 -13q0 -15 -29 -33l-70 -45q-20 -12 -33 -12q-16 0 -16 14zM866 694l15 30h72l-18 -30h-69zM869 1496q0 21 38 26l81 -2q21 -2 32 -8q12 -8 12 -17q0 -19 -40 -19l-84 -1q-39 0 -39 21zM910 827l10 16l26 14h106l-43 -30h-99zM1022 949l26 25h116l-32 -25h-110z M1124 1076l15 24h87l-15 -24h-87zM1165 1181l137 408l179 140l122 88l184 -432l94 -210l-69 -3l-71 142l-160 396l-101 -68l-124 -100l-114 -362zM1830 1103h54l5 -27h-55zM1837 979h54l5 -29l-55 1zM1848 857h53l5 -31l-54 1zM1857 732h53l5 -33l-54 1zM1875 618h51 l202 -617l-61 1z" />
<glyph unicode="t" horiz-adv-x="2154" d="M23 745v14h2012v50h12v-64h-2024zM23 905v14h2012v49h12v-63h-2024zM27 264v14h2012v49h11v-63h-2023zM27 440v14h2012v49h11v-63h-2023zM27 596v14h2012v49h11v-63h-2023zM29 102v14h2012v49h11v-63h-2023zM239 1470q0 43 37 43q27 0 55 -29l134 -129q49 -54 49 -96 q0 -41 -37 -41t-84 43l-119 123q-35 47 -35 86zM494 682h115v-27h-113zM508 856h115v-23h-109zM539 981q37 174 163 262q125 88 284 88q79 0 164 -25q74 -23 142 -70q63 -45 105 -108q37 -65 44 -144h-79q-36 125 -139 193q-106 68 -231 68q-128 0 -233 -70 q-107 -72 -136 -194h-84zM591 495v31h115l6 -31h-121zM722 378h130l-4 -34h-122zM934 1714q0 35 13 53q15 18 35 18q24 0 45 -22q21 -27 23 -62l8 -211q-7 -52 -23 -75q-20 -29 -43 -29q-49 0 -52 98zM1120 372h152l-6 -32h-144zM1303 501v25h115v-25h-115zM1362 856h114 l-1 -25l-109 -2zM1377 688h115v-29l-113 2zM1478 1214q0 44 47 96l165 111q28 10 49 10q29 0 47 -12q17 -15 17 -33q0 -27 -39 -45l-204 -148q-25 -22 -47 -22q-35 0 -35 43z" />
<glyph unicode="u" horiz-adv-x="2117" d="M30 1159q0 44 79 59l153 2q43 -7 66 -24q24 -18 24 -37q0 -17 -18 -26t-59 -9l-168 -2q-39 0 -57 11q-20 9 -20 26zM174 772q0 46 25 94q27 48 72 90q46 42 105 72q57 27 115 37q-33 72 -33 144q0 77 42 145q41 68 133 115q34 18 77 18q50 0 50 -24q0 -25 -79 -61 q-75 -32 -106 -81q-33 -50 -33 -120q0 -58 19 -132q62 -5 112 -35q51 -35 85 -96q0 2 -2 26v24q0 87 33 158q32 67 91 114q52 45 127 70q69 24 143 24h8q4 -2 11 -2h18q-44 90 -132 146q-87 52 -194 52q-136 0 -276 -83q-42 -17 -63 -17q-20 0 -20 15q0 30 72 99 q141 78 287 78q150 0 264 -83q109 -83 143 -223q88 -26 150 -90q57 -64 70 -163q89 80 190 80q64 0 127 -32q62 -33 110 -83q46 -51 76 -116q26 -63 26 -119t-28 -104q-31 -47 -90 -70q-98 -8 -194 -9l-157 -232h168l-593 -489l160 375h-147l189 344h-110h-113 q-75 0 -141 0.5t-124 1.5q-69 0 -136.5 0.5t-132.5 1.5q-63 0 -114 1t-90 3q-72 1 -102 3q-88 50 -88 133zM225 227q0 24 26 57l37 35q54 77 72 77q7 0 7 -13q0 -28 -26 -90l-1 -50q-12 -29 -28 -40q-21 -15 -42 -15q-45 0 -45 39zM251 1804q0 37 35 37q29 0 63 -35 l131 -124q27 -26 27 -53q0 -35 -40 -35q-34 0 -78 31l-118 127q-20 29 -20 52zM601 365q0 22 26 55l39 35q52 79 72 79q5 0 5 -13q0 -24 -24 -90l-3 -50q-8 -28 -28 -40q-21 -15 -42 -15q-45 0 -45 39zM736 118q0 26 26 57l37 35q51 77 71 77q6 0 6 -11q0 -26 -24 -90 l-2 -52q-10 -29 -28 -40q-20 -15 -42 -15q-44 0 -44 39zM804 1931q8 44 28 68q18 23 38 23q28 0 28 -35l-2 -6v-5l6 -235q0 -53 -41 -53q-20 0 -35 20q-18 21 -20 57zM1215 317h151l-109 -232l334 271h-120l175 276h-262zM1259 1553q0 25 28 43l186 125q15 11 35 11 q40 0 40 -37q0 -34 -47 -66l-113 -77q-50 -30 -86 -30q-43 0 -43 31z" />
<glyph unicode="v" horiz-adv-x="2179" d="M15 104l271 443h72l-276 -441zM126 821q0 85 67 172q63 84 162 133q-31 67 -31 136q0 79 44 146q42 65 116 113q77 47 157 70q82 25 162 25q70 0 120 -19q51 -22 74 -59q15 113 120 179q104 67 242 67q90 0 179 -32q87 -34 157 -100q69 -66 112 -171q42 -107 42 -248v-32 q-1 -17 -1 -37q95 -44 161 -141q28 -42 50 -95q17 -47 17 -95q0 -61 -28 -103q-29 -44 -90 -69q-64 -3 -175 -6q-104 -3 -214 -3q-49 0 -86 2h-91l-378 -2h-144.5t-104.5 2h-110t-121 1q-64 1 -109.5 2t-71.5 2q-28 0 -59 0.5t-65 1.5q-53 29 -76 71q-27 39 -27 89zM229 99 l271 442h72l-276 -440zM406 1225q0 -36 10 -68q58 19 106 19q128 0 214 -107q0 136 76 227q74 91 196 130q-39 57 -100 87q-63 29 -132 29q-66 0 -131 -23q-67 -26 -121 -69q-53 -44 -86 -101q-32 -60 -32 -124zM460 99l270 442h73l-277 -440zM724 -87l614 506h-174l147 234 h-58l-169 -278h124l-345 -280l113 240h-157l201 317h-64l-219 -351h153zM1052 1456q2 -18 2 -19q39 6 76 6q166 0 285 -96q117 -98 126 -276q82 118 211 118q0 6 2 32v29q0 114 -34 204q-34 86 -92 143q-57 53 -129 82q-74 27 -147 27q-125 0 -212 -63q-88 -66 -88 -170v-17 zM1310 87l270 443h73l-277 -441zM1569 87l271 443h72l-276 -441z" />
<glyph unicode="w" horiz-adv-x="2107" d="M20 1144q0 44 79 59l153 1q42 -5 66 -24q24 -18 24 -36q0 -17 -18 -26t-59 -9l-168 -2q-41 0 -57 11q-20 9 -20 26zM164 757q0 46 25 94q27 48 72 90q46 42 105 72q54 25 115 37q-34 74 -34 143q0 76 43 146t133 114q33 19 77 19q50 0 50 -24q0 -27 -79 -61 q-75 -32 -106 -81q-33 -50 -33 -120q0 -57 19 -133q60 -4 112 -35q50 -34 85 -95q0 1 -2 25v24q0 88 33 159q33 68 91 114q52 45 127 70q69 24 143 24h8q4 -2 11 -2h18q-46 92 -133 146q-86 51 -193 51q-139 0 -276 -83q-40 -16 -63 -16q-20 0 -20 15q0 28 72 99 q141 78 287 78q150 0 264 -83q110 -85 143 -223q89 -28 150 -91q57 -64 70 -162q87 79 189 79q67 0 128 -31q60 -32 110 -83q47 -54 76 -116q26 -65 26 -120t-28 -103q-30 -46 -90 -70q-98 -8 -194 -9l-157 -232h168l-593 -490l160 375h-147l189 345h-110h-113 q-75 0 -141 0.5t-124 1.5h-136.5t-132.5 2q-128 1 -205 3q-36 1 -61 2t-40 2q-88 49 -88 133zM165 200q0 22 26 55l37 35q52 80 70 80q8 0 8 -13q0 -27 -24 -91l-4 -47q-8 -29 -28 -43q-20 -15 -42 -15q-43 0 -43 39zM241 1789q0 37 35 37q29 0 63 -35l131 -124 q27 -26 27 -53q0 -35 -40 -35q-34 0 -78 31l-118 127q-20 29 -20 52zM457 318q0 26 26 57l35 35q51 78 70 78q7 0 7 -13q0 -25 -24 -89l-2 -50q-9 -27 -28 -40q-20 -15 -42 -15q-42 0 -42 37zM602 49l87 59l-87 72l19 20l88 -66v105h33v-103l100 53l17 -24l-96 -57l86 -70 l-18 -24l-89 66v-104h-33v104l-90 -53zM794 1916q9 44 28 68q17 22 38 22q28 0 28 -35l-2 -5v-6l6 -234q0 -53 -41 -53q-21 0 -35 20q-18 20 -20 57zM842 355l87 59l-87 72l18 20l89 -66v105h33v-103l99 53l17 -24l-96 -57l87 -70l-19 -24l-88 66v-105h-33v105l-90 -53z M1205 301h151l-109 -232l334 271h-120l175 277h-262zM1249 1538q0 24 28 42l186 126q17 11 35 11q40 0 40 -37q0 -33 -47 -66l-113 -78q-51 -29 -87 -29q-42 0 -42 31z" />
<glyph unicode="x" horiz-adv-x="2109" d="M18 918q0 85 69 174q64 86 165 137q-31 67 -31 138q0 81 45 150q42 66 118 114q75 48 160 72q87 26 165 26q69 0 123 -20q51 -21 76 -60q14 113 122 183q107 68 247 68q93 0 183 -33q85 -33 160 -101q73 -72 114 -176q43 -107 43 -252v-33q-2 -34 -2 -37q97 -45 165 -144 q32 -50 51 -98q18 -51 18 -97q0 -60 -30 -105q-28 -44 -91 -70q-33 -3 -78 -4t-101 -2q-53 -2 -107.5 -3t-110.5 -1q-12 0 -88 2h-93l-60 -2h-263h-62q-84 0 -147.5 0.5t-107.5 1.5q-53 0 -111.5 0.5t-123.5 1.5q-66 1 -112 2t-73 2q-29 0 -60.5 0.5t-66.5 1.5 q-53 29 -77 72q-28 42 -28 92zM75 145l91 62l-91 76l19 22l94 -70v110h35v-108l105 56l17 -25l-101 -61l92 -73l-20 -26l-93 70v-111h-35v111l-96 -56zM305 1330q0 -36 9 -70q55 19 109 18q131 0 218 -108q0 139 78 232q74 92 200 132q-41 60 -103 90q-63 29 -134 29 q-68 0 -134 -24q-67 -24 -123 -70q-55 -46 -87 -103q-33 -60 -33 -126zM355 447l94 64l-94 74l21 23l94 -72v113h35v-111l103 57l20 -24l-102 -60l92 -74l-20 -27l-93 70v-111h-35v111l-95 -57zM716 -9l626 516h-177l149 239h-58l-173 -283h127l-352 -286l115 245h-160 l204 323h-65l-223 -358h156zM964 1565q2 -18 2 -19q39 6 78 6q168 0 289 -98q121 -99 129 -282q85 121 216 121q0 5 2 33v29q0 118 -35 208q-37 91 -94 146q-60 57 -132 84q-74 27 -150 27q-127 0 -216 -64q-89 -67 -89 -173v-18zM1227 169l68 1l282 450h-74zM1491 169 l276 451h74l-282 -450z" />
<glyph unicode="y" horiz-adv-x="2112" d="M25 1169q0 44 79 59l153 2q43 -7 67 -24q24 -18 24 -37q0 -17 -19 -26q-18 -9 -59 -9l-168 -2q-37 0 -57 11q-20 9 -20 26zM169 782q0 47 26 94q25 47 71 90q43 40 106 72q55 27 114 37q-33 72 -33 144q0 77 42 145q41 67 133 115q34 18 77 18q50 0 50 -24q0 -25 -79 -61 q-75 -32 -105 -81q-34 -49 -34 -120q0 -52 19 -132q62 -5 112 -35q51 -35 85 -96q0 2 -2 26v24q0 87 33 158q34 69 91 114q54 45 127 70q69 24 143 24h8q2 -1 11 -1h18q-46 91 -132 145q-87 52 -194 52q-136 0 -276 -83q-42 -17 -63 -17q-20 0 -20 15q0 29 72 100 q141 77 287 77q150 0 264 -83q109 -83 143 -223q88 -26 150 -90q57 -64 70 -163q89 80 190 80q64 0 127 -32q62 -33 110 -83q49 -55 76 -116q26 -63 26 -119q0 -59 -28 -104q-31 -47 -90 -70q-49 -3 -97.5 -6t-96.5 -3l-156 -232h167l-593 -489l160 375h-147l190 344h-111 h-112q-75 0 -141.5 0.5t-124.5 1.5q-69 0 -136.5 0.5t-132.5 1.5q-63 0 -114 1.5t-90 2.5q-72 1 -102 3q-88 50 -88 133zM246 1814q0 37 35 37q29 0 63 -35l131 -124q27 -26 27 -53q0 -35 -40 -35q-34 0 -78 31l-118 128q-20 27 -20 51zM335 131l86 59l-86 72l18 21l89 -67 v105h33v-103l99 54l17 -24l-96 -58l87 -70l-19 -24l-88 67v-105h-33v105l-91 -54zM648 355l88 60l-88 70l20 22l89 -68v107h33v-105l98 54l18 -23l-96 -57l87 -70l-19 -26l-88 67v-105h-33v105l-91 -54zM799 1941q9 46 28 68q18 23 38 23q28 0 28 -35l-2 -6v-5l6 -235 q0 -53 -41 -53q-20 0 -35 20q-18 21 -20 57zM1210 327h151l-109 -232l334 271h-120l175 276h-261zM1254 1563q0 25 28 43l186 125q15 11 35 11q41 0 41 -37q0 -33 -48 -66l-113 -77q-50 -30 -86 -30q-43 0 -43 31z" />
<glyph unicode="z" horiz-adv-x="2103" d="M15 873q0 83 64 173q63 87 161 140q-19 62 -19 125q0 90 44 165q43 72 113 123q72 49 154 74q85 25 160 25q66 0 120 -20q50 -21 70 -58q24 111 121 179q96 68 227 68q92 0 183 -37q92 -40 171 -118q80 -81 139 -207q56 -128 77 -297q84 -51 144 -142q59 -96 59 -181 q0 -60 -30 -103q-30 -46 -91 -70q-99 -9 -288 -10q-90 -3 -193.5 -3.5t-218.5 -0.5q-90 0 -174.5 0.5t-164.5 1.5q-63 0 -144.5 1t-181.5 3q-77 0 -141 1t-116 3q-105 1 -142 4q-53 28 -78 72q-25 39 -25 89zM137 149l91 62l-91 76l19 22l94 -70v111h35v-109l105 56l17 -25 l-101 -61l92 -74l-20 -25l-93 70v-111h-35v111l-96 -56zM299 1307q0 -43 15 -88q54 18 105 18q62 0 119 -27q56 -30 97 -82q0 140 78 235q74 92 197 129q-44 52 -106 79q-66 28 -136 28q-68 0 -132 -22q-66 -21 -121 -60q-56 -42 -85 -93q-31 -55 -31 -117zM389 419l93 64 l-93 74l21 23l93 -72v113h35v-111l103 57l20 -24l-101 -60l91 -74l-19 -27l-94 70v-111h-35v111l-95 -57zM685 -61l169 396h-155l223 368l65 5l-204 -338h159l-115 -245l352 286h-126l172 283h59l-150 -238h178zM956 1503q41 8 87 8q163 0 285 -99q120 -100 128 -282 q46 63 97 91q49 29 107 29q22 0 37 -4q-20 133 -66 236q-48 100 -111 163q-65 64 -136 96q-74 29 -144 29q-119 0 -200 -72q-84 -74 -84 -195zM1228 150l92 63l-92 75l19 22l94 -70v111h35v-109l105 56l18 -25l-102 -60l92 -74l-20 -26l-93 70v-111h-35v111l-95 -56z M1521 420l93 64l-93 74l21 23l93 -71v112h35v-111l104 57l19 -23l-101 -61l91 -74l-19 -27l-94 70v-111h-35v111l-95 -56z" />
<glyph unicode="&#xa9;" horiz-adv-x="1626" d="M436 1138q0 85 64 145q63 60 155 60v1q88 -2 152 -61q63 -60 63 -145t-63 -145q-65 -60 -152 -60q-92 0 -155 59q-64 59 -64 146zM454 752q0 23 7 40q12 -7 18 -20q1 -5 3.5 -11.5t5.5 -15.5q2 4 6 8q3 3 15 21q9 12 18 18q4 3 10 3q11 0 21 -19q8 -15 13 -31 q12 13 27 28q19 19 32 19q7 0 19 -8q11 -10 19 -30q7 -17 9 -34q0 -11 1 -18t1 -16q0 -12 -6 -16l-10 -5q-5 10 -6 26q-3 13 -3 26t-3 22q-3 12 -11 17q-5 3 -11 3q-10 0 -21 -11q-9 -9 -15 -23q-4 -7 -7 -13t-6 -11q-5 -9 -15 -22q-13 11 -16 36q-7 37 -8 41 q-23 -8 -39 -54q-16 -41 -14 -37q-5 3 -8.5 5t-5.5 4q-8 4 -11 15q-7 34 -6 32q-3 15 -3 31zM479 1138q0 -69 51 -118q52 -48 124 -48q71 0 122 49q51 48 51 117q0 68 -51 118q-53 49 -122 49q-71 0 -124 -49q-51 -50 -51 -118zM531 1138q0 44 37 79q37 34 84 34q12 0 23 -3 q7 -2 17 -5l12 -4q6 -3 9 -3h0.5h1.5h0.5h1.5h0.5t1.5 1h0.5h1.5l1.5 0.5t2.5 0.5h1.5h2.5q13 0 23 -16t10 -38q0 -15 -9 -24t-24 -9q-9 0 -14 5q-5 3 -11 13q-2 2 -3 4q-1 0 -2 1.5t-1 2.5q-8 10 -18 18q-9 9 -28 9q-15 0 -26 -11q-9 -11 -9 -30q0 -31 19 -54 q19 -21 48 -21h0.5h1.5h0.5h1.5q9 0 23 4q12 4 18 10q1 1 2.5 2t2.5 2q2 2 3 2h0.5h1.5h0.5h1.5q6 0 11 -5q4 -6 4 -14v-4v-3q-1 -2 -1.5 -4t-0.5 -3q-6 -12 -11 -19q-6 -9 -16 -10q1 0 -14 -3q-3 -1 -6.5 -2.5t-6.5 -1.5q0 -1 -2 -1h-1h-1q-7 -4 -21 -7q-14 -2 -21 -2 q-52 0 -86 32q-37 32 -37 77zM712 688q0 10 3 13q1 3 5 3q1 0 7 -2l3.5 -3.5t4.5 -2.5q5 -7 5 -18q0 -6 -2 -8q-1 -3 -5 -5q-3 0 -4.5 -0.5l-1.5 -0.5q-8 0 -11 7q-4 10 -4 17zM756 788q-3 -1 7 4q1 1 3 2t4 3q1 -1 11 -6q6 -4 8 -10q1 -5 3 -16q1 -11 5 -20q1 2 4.5 6.5 t9.5 12.5q14 19 31 26q9 3 21 3q3 0 5.5 -0.5t5.5 -0.5q3 -1 6 -1.5t6 -0.5q5 -2 12 -8t7 -12q0 -5 -5 -8q-1 -1 -3 -1l-6 2q-2 2 -3 2h-2h-2h-2.5h-0.5q-9 0 -19 -4q-7 -4 -15 -16q-12 -18 -39 -55q-2 -4 -8 -17q-7 -8 -11 -8q-5 0 -11 8q-4 5 -7 18q-1 6 -1 23v6 q0 11 -5 33l-2 9zM901 749q0 32 10 52l3 -3l3 3q6 -14 8 -26q3 -15 3 -32v-5v-6q0 -18 2 -22q3 -11 14 -11q3 0 9 2q9 2 22 22q7 12 13 31q3 18 6 25q2 13 11 22l3 -3l1 -1.5t4 -3.5q5 -4 5 -6l7 -14q1 -7 5 -16q4 -20 2 -12q1 -16 3 -19q4 -20 7 -34q1 -6 1 -19 q-11 4 -19 16q-1 1 -6 11t-13 29q-6 -11 -13 -25q-8 -13 -15 -22q-5 -6 -15 -11t-18 -5q-5 0 -11 2q-5 1 -9 6q-12 13 -17 32q-6 19 -6 43zM929 974q0 8 3 22q4 12 9 35q1 8 4 28q1 10 1 26q1 9 1 26q0 8 4 18l1 -0.5t2 -0.5q2 -3 4 -4.5t3 -1.5q4 -4 8 -12q2 -12 2 -19v-6 v-5q-1 -11 -1 -18q0 -10 1 -13q18 5 34 5h1h1l6 -2q8 -6 12 -11q-2 2 8 -14q0 -1 0.5 -2l0.5 -1q4 -6 4 -5v-1v-1q0 -5 -3 -11q-1 -2 -2.5 -4t-2.5 -5q-8 -12 -21 -25q-14 -13 -28 -17q-4 -1 -8.5 -2t-7.5 -1q-12 -2 -15 -2q-7 0 -9 1q-3 1 -7 5q-2 2 -4 8q-1 2 -1 10z M966 985q18 6 27 14q13 13 13 25v3v3h-5q-11 0 -23 -17t-12 -28zM1042 1059q13 -3 26 -15q3 -4 16 -25q12 -20 17 -24q2 4 13 30q9 23 9 32q0 8 2 10q0 3 3 3t8 -3q5 -5 9 -11q2 -8 2 -14q0 -8 -1 -12q-4 -14 -12 -32q-6 -12 -9 -20.5t-4 -11.5q-3 -10 -13 -32l-1 -4 q-10 -19 -14 -29q-12 -28 -14 -34q-4 -12 -6 -16q-7 -8 -14 -8h-2h-3q-6 2 -7 4q-3 3 -3 7q0 1 0.5 2.5t0.5 3.5l1 2.5t3 8.5q24 54 35 80q0 1 0.5 2.5t0.5 4.5q1 2 1 6q0 13 -11 32q-8 10 -22 30q-11 18 -11 33zM1049 710q0 10 5 22q6 13 16 24t17 16q8 5 18 5q9 0 23 -4 q1 7 3 41q1 35 11 46q11 -6 17 -15q3 -8 3 -20v-7v-9q-1 -7 -1 -13v-111q-6 0 -11.5 1t-11.5 2q-4 0 -11 -6l-10 -8q-4 -2 -7.5 -3.5t-6.5 -2.5q-10 -2 -14 -2q-8 0 -15 3q-6 3 -13 10q-12 13 -12 31zM1081 707q0 -5 1 -7q0 -1 1 -2.5t3 -2.5q4 -2 7 -2q4 0 15 7l5 5l7 7 q5 5 8 11q4 6 4 14q0 7 -4 11t-9 4q-11 0 -25 -16q-13 -15 -13 -29zM1176 703q0 22 12 45q13 23 31 34l2 2t7 6q4 3 10 6q1 0 2 0.5t3 0.5q1 0 9 -2q5 0 11 -2q12 -2 25 -8q16 -10 22 -17q2 -4 4 -10q2 -8 2 -12q0 -11 -5 -22q-5 -12 -12 -17q-16 -13 -36 -25 q-23 -12 -41 -14q-10 -2 -14 -2q-9 0 -19 4q-8 5 -11 15q-2 12 -2 18zM1203 709q0 -8 4 -10q4 -4 15 -4q17 0 41 15q26 16 26 33q0 8 -9 16l-8 4q-3 1 -9 1q-9 0 -18 -3q-10 -5 -17 -10q-11 -9 -17 -19q-8 -12 -8 -23zM1338 811v47q0 12 1 15q0 4 4 4q3 0 11 -8q5 -6 7 -18 q1 -6 1 -21q0 -18 2 -54q1 -29 3 -60q1 -20 1 -52h-2h-2h-2q-6 0 -7 1q-6 1 -7 5l-0.5 2.5t-0.5 5.5q-2 20 -2 29q-1 9 -1 32q0 1 -4 45q-2 11 -2 27zM1385 771q0 9 17 11q5 1 16 1q12 0 18 4q4 2 4 16q0 22 6 43q-2 -3 8 27q4 13 15 23q12 7 23 7q20 0 39 -17 q18 -18 18 -40v-2v-1q0 -1 -0.5 -2.5t-0.5 -4.5q-5 3 -21 21q-15 16 -23 16q-9 0 -17 -8t-11 -17q-4 -11 -4 -26q0 -14 5 -24t18 -10h3h7t7.5 0.5t6.5 0.5q10 0 20 -2q7 -3 7 -9q0 -5 -4 -10q-5 -8 -18 -9q-6 -2 -23 -2h-14v-3l-3 -3l3 -3v-6q9 -36 6 -27v-5.5v-4.5 q1 -4 1 -13q0 -18 -3 -25t-8 -7q-4 0 -9 5q-6 4 -9 22l-3 25q-3 14 -6 26q-7 13 -19 13q-1 0 -3.5 -0.5t-5.5 -0.5h-6h-5q-13 0 -17 2q-9 1 -12 10q-3 3 -3 9z" />
<glyph unicode="&#xb6;" horiz-adv-x="1208" d="M246 1298q0 36 2 47q16 149 172 211q121 49 334 49q103 0 190 -4q32 -4 188 -10l19 -2v-105q-22 -2 -39 -2h-47v-1482h-115v1482h-147v-1482h-115v1036h-43q-63 14 -128 29t-132 32q-139 53 -139 201zM359 1307q0 -97 120.5 -137.5t201.5 -40.5q1 0 3 56t3 123.5t0 123 t-6 54.5q-146 0 -234 -41.5t-88 -137.5z" />
<glyph unicode="&#xb7;" horiz-adv-x="800" d="M389 823q0 59 45.5 101t109.5 42t110 -42t46 -101t-46 -100.5t-110 -41.5t-109.5 41.5t-45.5 100.5z" />
<glyph unicode="&#x2000;" horiz-adv-x="1016" />
<glyph unicode="&#x2001;" horiz-adv-x="2032" />
<glyph unicode="&#x2002;" horiz-adv-x="1016" />
<glyph unicode="&#x2003;" horiz-adv-x="2032" />
<glyph unicode="&#x2004;" horiz-adv-x="677" />
<glyph unicode="&#x2005;" horiz-adv-x="508" />
<glyph unicode="&#x2006;" horiz-adv-x="338" />
<glyph unicode="&#x2007;" horiz-adv-x="338" />
<glyph unicode="&#x2008;" horiz-adv-x="254" />
<glyph unicode="&#x2009;" horiz-adv-x="406" />
<glyph unicode="&#x200a;" horiz-adv-x="112" />
<glyph unicode="&#x202f;" horiz-adv-x="406" />
<glyph unicode="&#x205f;" horiz-adv-x="508" />
<glyph unicode="&#x25fc;" horiz-adv-x="1900" d="M0 0v1900h1900v-1900h-1900z" />
</font>
</defs>
</svg>
